<?xml version="1.0" standalone="no"?>
<!DOCTYPE svg PUBLIC "-//W3C//DTD SVG 1.1//EN" "http://www.w3.org/Graphics/SVG/1.1/DTD/svg11.dtd" >
<svg xmlns="http://www.w3.org/2000/svg" xmlns:xlink="http://www.w3.org/1999/xlink" version="1.1">
<metadata>
Created by FontForge 20201107 at Wed Feb 16 15:57:25 2022
 By 
Copyright 2014 The Nunito Project Authors (https://github.com/googlefonts/nunito)
</metadata>
<defs>
<font id="Nunito-ExtraLight" horiz-adv-x="0" >
  <font-face 
    font-family="Nunito ExtraLight"
    font-weight="200"
    font-stretch="normal"
    units-per-em="1000"
    panose-1="0 0 0 0 0 0 0 0 0 0"
    ascent="800"
    descent="-200"
    x-height="484"
    cap-height="705"
    bbox="-233.556 -276 1268 1039"
    underline-thickness="28"
    underline-position="-94"
    unicode-range="U+000D-FB02"
  />
<missing-glyph horiz-adv-x="500" 
d="M50 -180v885h400v-885h-400zM100 -130h300v785h-300v-785z" />
    <glyph glyph-name="fi" unicode="fi" horiz-adv-x="512" 
d="M126 -6q-10 0 -15.5 6t-5.5 16v432h-79q-10 0 -16 5t-6 13t6 13t16 5h89l-10 -11v42q0 87 40.5 135t123.5 54l29 2q8 1 13 -2.5t6.5 -9t0 -11.5t-5.5 -10t-10 -4l-34 -2q-64 -4 -92.5 -43.5t-28.5 -108.5v-45l-8 14h267q10 0 15.5 -5.5t5.5 -16.5v-443q0 -10 -5 -16
t-16 -6q-10 0 -15.5 6t-5.5 16v429h-238v-432q0 -22 -21 -22zM406 616q-16 0 -25.5 9.5t-9.5 25.5q0 17 9.5 25.5t25.5 8.5q17 0 26 -8.5t9 -25.5q0 -16 -9 -25.5t-26 -9.5z" />
    <glyph glyph-name="fl" unicode="fl" horiz-adv-x="581" 
d="M126 -6q-10 0 -15.5 6t-5.5 16v432h-79q-10 0 -16 5t-6 13t6 13t16 5h89l-10 -11v42q0 88 41.5 136.5t124.5 55.5l26 2q8 1 13 -2.5t6.5 -8.5t0 -10.5t-5.5 -9.5t-10 -5l-32 -3q-64 -6 -93 -44.5t-29 -110.5v-45l-8 14h136q11 0 16.5 -5t5.5 -13t-5.5 -13t-16.5 -5h-128
v-432q0 -22 -21 -22zM523 -8q-63 0 -97.5 40.5t-34.5 113.5v543q0 11 5.5 16.5t15.5 5.5t15.5 -5.5t5.5 -16.5v-536q0 -61 24 -91.5t70 -30.5q10 0 17 1t14 1q8 0 12.5 -3t4.5 -12q0 -11 -6 -16t-20 -8q-7 -1 -13.5 -1.5t-12.5 -0.5z" />
    <glyph glyph-name=".notdef" horiz-adv-x="500" 
d="M50 -180v885h400v-885h-400zM100 -130h300v785h-300v-785z" />
    <glyph glyph-name=".null" 
 />
    <glyph glyph-name="nonmarkingreturn" horiz-adv-x="333" 
 />
    <glyph glyph-name="NULL" 
 />
    <glyph glyph-name="NULL" 
 />
    <glyph glyph-name="CR" unicode="&#xd;" horiz-adv-x="246" 
 />
    <glyph glyph-name="space" unicode=" " horiz-adv-x="246" 
 />
    <glyph glyph-name="exclam" unicode="!" horiz-adv-x="211" 
d="M106 158q-6 0 -10.5 4.5t-4.5 14.5l-11 507q0 13 6.5 20t19.5 7q12 0 18.5 -7t6.5 -20l-11 -507q0 -10 -4 -14.5t-10 -4.5zM106 -3q-16 0 -27 11t-11 27q0 17 11 27.5t27 10.5q17 0 27 -10.5t10 -27.5q0 -16 -10 -27t-27 -11z" />
    <glyph glyph-name="quotedbl" unicode="&#x22;" horiz-adv-x="342" 
d="M102 434q-6 0 -10 4.5t-5 12.5l-11 233q-1 11 6.5 19t18.5 8q8 0 13.5 -3.5t9 -9.5t2.5 -14l-9 -233q0 -9 -4.5 -13t-10.5 -4zM242 434q-6 0 -10 4.5t-5 12.5l-11 233q-1 11 6.5 19t18.5 8q8 0 13.5 -3.5t9 -9.5t2.5 -14l-9 -233q0 -9 -4.5 -13t-10.5 -4z" />
    <glyph glyph-name="numbersign" unicode="#" horiz-adv-x="600" 
d="M115 -6q-10 0 -14.5 7.5t-1.5 21.5l34 174l18 -6h-97q-8 0 -14.5 2.5t-9.5 7t-3 10.5q0 10 7 15t20 5h104l-20 -6l52 266l17 -9h-134q-8 0 -14.5 2.5t-9.5 7t-3 10.5q0 10 7 15t20 5h141l-20 -6l33 171q2 13 9 18.5t17 5.5t13.5 -7.5t1.5 -21.5l-30 -160h188l31 165
q2 13 9.5 18.5t17.5 5.5t13.5 -7.5t1.5 -21.5l-31 -166l-18 6h96q9 0 15 -2.5t9 -6.5t3 -11q0 -10 -7 -15t-20 -5h-104l21 9l-52 -267l-18 7h134q9 0 15 -2.5t9 -6.5t3 -11q0 -10 -7 -15t-20 -5h-141l20 6l-35 -179q-2 -13 -8.5 -18.5t-17.5 -5.5q-10 0 -14.5 7.5t-1.5 21.5
l32 168h-187l-33 -173q-2 -13 -8.5 -18.5t-17.5 -5.5zM181 231h188l49 251h-188z" />
    <glyph glyph-name="dollar" unicode="$" horiz-adv-x="600" 
d="M310 -121q-8 0 -14 6t-6 14v110l13 -13q-71 0 -133 20.5t-103 56.5q-6 6 -8 13t0.5 13t7.5 10t11.5 3.5t14.5 -6.5q38 -30 86 -49.5t124 -19.5q64 0 106.5 18t64 50.5t21.5 75.5q0 35 -15.5 60t-48.5 42t-87 28l-95 20q-90 19 -133.5 63t-43.5 117q0 57 28 101.5t78.5 70
t116.5 26.5l-5 -13v110q0 8 6 14t14 6t14 -6t6 -14v-110l-7 12q51 -1 104.5 -23t90.5 -62q5 -5 5.5 -11.5t-2 -12t-7.5 -8.5t-11.5 -2.5t-13.5 7.5q-37 35 -81.5 53.5t-106.5 18.5q-85 0 -136.5 -43t-51.5 -114q0 -57 33 -90t105 -48l95 -20q98 -20 145 -60.5t47 -110.5
q0 -56 -28.5 -97t-78 -63.5t-114.5 -25.5l13 14v-111q0 -8 -5.5 -14t-14.5 -6z" />
    <glyph glyph-name="percent" unicode="%" horiz-adv-x="916" 
d="M275 -9q-5 -9 -11.5 -12t-12.5 -1.5t-10 6.5t-4.5 12t3.5 15l400 700q5 9 11 12t12.5 1.5t10.5 -6.5t5 -12t-4 -15zM229 281q-76 0 -119.5 56t-43.5 160q0 69 20 117t56.5 73t86.5 25q75 0 119 -56t44 -159q0 -69 -19.5 -117t-56 -73.5t-87.5 -25.5zM229 318
q38 0 65 20.5t41.5 60.5t14.5 98q0 87 -32.5 132.5t-88.5 45.5q-37 0 -64.5 -20.5t-42 -60t-14.5 -97.5q0 -88 32.5 -133.5t88.5 -45.5zM687 -8q-76 0 -119.5 56t-43.5 160q0 69 20 117t56.5 73t86.5 25q75 0 119 -56t44 -159q0 -69 -19.5 -117.5t-56 -73.5t-87.5 -25z
M687 29q38 0 65 20.5t41.5 60.5t14.5 98q0 87 -32.5 132.5t-88.5 45.5q-37 0 -64.5 -20.5t-42 -60t-14.5 -97.5q0 -88 32.5 -133.5t88.5 -45.5z" />
    <glyph glyph-name="ampersand" unicode="&#x26;" horiz-adv-x="664" 
d="M275 -8q-66 0 -113 21t-71.5 58.5t-24.5 88.5q0 33 9 61t27.5 53.5t47.5 51t68 53.5l31 22l-5 -8q-52 59 -71.5 97t-19.5 78q0 43 19 75.5t54 51t82 18.5q58 0 98.5 -35.5t40.5 -97.5q0 -34 -13 -63.5t-46 -61t-95 -72.5l2 13l202 -235h-10q15 26 26.5 61t18.5 77t9 89
q1 11 6.5 16.5t15.5 5.5t15 -6t4 -17q-2 -54 -11.5 -101t-24 -87t-33.5 -73l-2 18l104 -121q7 -7 6 -14t-6.5 -11t-13.5 -4q-7 0 -11.5 2.5t-10.5 9.5l-90 104h14q-39 -56 -98 -87t-130 -31zM275 31q66 0 117 28.5t86 83.5v-20l-217 249h13l-32 -23q-50 -35 -79.5 -64
t-42 -58t-12.5 -66q0 -61 42.5 -95.5t124.5 -34.5zM308 674q-50 0 -81.5 -29.5t-31.5 -76.5q0 -23 7 -43.5t26 -46t53 -65.5l-16 -4q53 36 84 63.5t44.5 52.5t13.5 51q0 44 -27.5 71t-71.5 27z" />
    <glyph glyph-name="quotesingle" unicode="'" horiz-adv-x="202" 
d="M102 434q-6 0 -10 4.5t-5 12.5l-11 233q-1 11 6.5 19t18.5 8q8 0 13.5 -3.5t9 -9.5t2.5 -14l-9 -233q0 -9 -4.5 -13t-10.5 -4z" />
    <glyph glyph-name="parenleft" unicode="(" horiz-adv-x="281" 
d="M203 -174q-49 108 -74 216.5t-25 220.5q0 75 11 148t33 145t55 144q4 9 11.5 11t14 -1t9.5 -10t-1 -17q-29 -69 -49 -139t-30 -140t-10 -141q0 -70 10 -140.5t30 -140.5t49 -139q5 -10 1.5 -17t-10 -9.5t-14 -0.5t-11.5 10z" />
    <glyph glyph-name="parenright" unicode=")" horiz-adv-x="281" 
d="M78 -174q-4 -8 -11 -10t-14 0.5t-10 9.5t1 17q30 69 49.5 139t29.5 140.5t10 140.5q0 71 -10.5 141t-30 140t-48.5 139q-4 10 -1 17t9.5 10t14 1t11.5 -11q51 -107 75 -215.5t24 -221.5q0 -75 -11 -149t-32.5 -146t-55.5 -142z" />
    <glyph glyph-name="asterisk" unicode="*" horiz-adv-x="448" 
d="M129 376q-8 5 -8.5 14t6.5 20l74 121l5 -7l-143 -3q-13 0 -20.5 5t-7.5 14t7.5 13.5t20.5 4.5l143 -3l-5 -6l-74 121q-7 11 -6 20.5t8 13.5q8 5 16 0t14 -16l68 -122h-6l67 122q7 12 15.5 16.5t15.5 -0.5q8 -5 8 -14t-7 -20l-73 -121l-6 6l144 3q13 0 20.5 -4.5
t7.5 -13.5q0 -10 -7.5 -14.5t-20.5 -4.5l-144 3l6 7l73 -121q7 -11 7 -19.5t-8 -13.5t-16.5 -0.5t-14.5 15.5l-67 121h6l-68 -122q-6 -11 -14 -15.5t-16 0.5z" />
    <glyph glyph-name="plus" unicode="+" horiz-adv-x="600" 
d="M300 34q-10 0 -15 5.5t-5 15.5v212h-209q-10 0 -15.5 5.5t-5.5 14.5t5.5 14t15.5 5h209v207q0 10 5 15.5t15 5.5t15 -5.5t5 -15.5v-207h209q10 0 15.5 -5t5.5 -14q0 -10 -5.5 -15t-15.5 -5h-209v-212q0 -10 -5 -15.5t-15 -5.5z" />
    <glyph glyph-name="comma" unicode="," horiz-adv-x="211" 
d="M108 -85q-7 -9 -14.5 -10.5t-12.5 2.5t-5.5 11.5t6.5 17.5q12 17 17.5 35.5t5.5 34.5l3 -9q-18 0 -29 11t-11 27q0 17 10 27.5t26 10.5q17 0 27.5 -12t10.5 -36q0 -17 -3.5 -37t-11 -39t-19.5 -34z" />
    <glyph glyph-name="hyphen" unicode="-" horiz-adv-x="416" 
d="M90 246q-8 0 -14 5.5t-6 13.5t6 13.5t14 5.5h236q8 0 14 -5.5t6 -13.5t-6 -13.5t-14 -5.5h-236z" />
    <glyph glyph-name="period" unicode="." horiz-adv-x="211" 
d="M106 -3q-16 0 -27 11t-11 27q0 17 11 27.5t27 10.5q17 0 27 -10.5t10 -27.5q0 -16 -10 -27t-27 -11z" />
    <glyph glyph-name="slash" unicode="/" horiz-adv-x="256" 
d="M25 -39q-3 -8 -8 -11.5t-11.5 -3.5t-11.5 3t-7 9t0 14l244 756q3 8 8 11.5t11.5 3.5t11.5 -3t7 -9t0 -14z" />
    <glyph glyph-name="zero" unicode="0" horiz-adv-x="600" 
d="M300 -8q-117 0 -177.5 92t-60.5 268q0 119 27 199t80 121t131 41q118 0 178 -91t60 -269q0 -118 -27 -198.5t-80 -121.5t-131 -41zM300 33q98 0 145.5 78.5t47.5 241.5q0 164 -47 241.5t-146 77.5q-98 0 -145.5 -78t-47.5 -241t47.5 -241.5t145.5 -78.5z" />
    <glyph glyph-name="one" unicode="1" horiz-adv-x="600" 
d="M154 0q-10 0 -16 5.5t-6 14.5t6 14t16 5h146v634h27l-144 -102q-7 -5 -14 -5t-11.5 4t-6.5 10t0 12.5t10 11.5l138 99q7 5 11.5 6.5t11.5 1.5q8 0 14 -5.5t6 -16.5v-650h136q11 0 16.5 -5t5.5 -14q0 -10 -5.5 -15t-16.5 -5h-324z" />
    <glyph glyph-name="two" unicode="2" horiz-adv-x="600" 
d="M125 0q-13 0 -20 7t-7 16q0 5 2.5 11t6.5 10l244 264q56 61 81 113.5t25 107.5q0 70 -41 106.5t-121 36.5q-54 0 -99 -18.5t-85 -53.5q-8 -7 -14.5 -7.5t-11 3.5t-6.5 10t-0.5 13t7.5 13q37 35 92.5 58t116.5 23q66 0 112 -21.5t70 -62.5t24 -99q0 -42 -14 -83.5
t-41.5 -84t-70.5 -87.5l-236 -251v15h376q11 0 16.5 -5t5.5 -14q0 -10 -5.5 -15t-16.5 -5h-390z" />
    <glyph glyph-name="three" unicode="3" horiz-adv-x="600" 
d="M297 -8q-62 0 -120.5 19.5t-101.5 57.5q-6 5 -7.5 12t0 13t6 10t11 4t14.5 -6q46 -36 95 -52.5t103 -16.5q57 0 96.5 18t60 52.5t20.5 84.5q0 74 -47.5 112.5t-138.5 38.5h-78q-10 0 -16 5.5t-6 14.5t6 14t16 5h76q52 0 89.5 19.5t58.5 55t21 84.5q0 65 -41.5 100
t-118.5 35q-52 0 -98.5 -17.5t-84.5 -55.5q-7 -7 -14 -8t-12 2t-7.5 9.5t-0.5 14t9 14.5q38 39 93.5 60.5t114.5 21.5q64 0 109.5 -21t70 -60.5t24.5 -94.5q0 -44 -16.5 -80.5t-47 -62t-72.5 -36.5v10q74 -13 114.5 -60.5t40.5 -119.5q0 -60 -26.5 -104t-76 -68t-118.5 -24z
" />
    <glyph glyph-name="four" unicode="4" horiz-adv-x="600" 
d="M423 -6q-10 0 -15.5 6t-5.5 16v150h-322q-10 0 -16 6t-6 16q0 6 2.5 11t6.5 12l332 486q5 7 11 10.5t14 3.5t14 -5.5t6 -16.5v-484h95q11 0 16.5 -5t5.5 -14q0 -10 -5.5 -15t-16.5 -5h-95v-150q0 -10 -5 -16t-16 -6zM402 205v454h20l-320 -466v12h300z" />
    <glyph glyph-name="five" unicode="5" horiz-adv-x="600" 
d="M323 -8q-61 0 -119 20t-104 61q-5 5 -6.5 11.5t1 12.5t7 10t11.5 3.5t14 -6.5q44 -37 93.5 -54t102.5 -17q55 0 95 22t61.5 61.5t21.5 91.5q0 81 -45.5 133.5t-125.5 52.5q-53 0 -94.5 -20.5t-72.5 -64.5q-4 -8 -9.5 -12t-14.5 -4q-10 0 -16 6.5t-6 16.5v367q0 11 6 16.5
t16 5.5h349q11 0 16.5 -5t5.5 -14q0 -10 -5.5 -15t-16.5 -5h-329v-330h-14q27 47 76 73t111 26q66 0 113.5 -28t73.5 -78t26 -117q0 -64 -27 -113.5t-76.5 -78t-118.5 -28.5z" />
    <glyph glyph-name="six" unicode="6" horiz-adv-x="600" 
d="M323 -8q-80 0 -135.5 40t-84.5 116t-29 183q0 93 18 164t53 119.5t85 73.5t113 25q48 0 99.5 -21.5t86.5 -61.5q5 -6 6 -13t-1.5 -13t-7.5 -9.5t-11.5 -2t-13.5 8.5q-34 37 -75.5 54t-83.5 17q-71 0 -121.5 -37t-77 -111t-26.5 -184v-110h-6q5 63 33.5 108.5t75 70.5
t103.5 25q64 0 112.5 -28t76 -77.5t27.5 -114.5q0 -64 -27.5 -114.5t-76.5 -79t-112 -28.5zM319 33q52 0 91.5 23t62 63.5t22.5 93.5t-22.5 93.5t-62 63.5t-91.5 23t-91.5 -23t-62 -63.5t-22.5 -93.5t22.5 -93.5t62 -63.5t91.5 -23z" />
    <glyph glyph-name="seven" unicode="7" horiz-adv-x="600" 
d="M164 -6q-6 0 -11.5 3.5t-7.5 10.5t2 16l339 670v-28h-392q-10 0 -16 5.5t-6 14.5t6 14t16 5h405q11 0 16.5 -5t5.5 -14q0 -7 -1 -12t-5 -13l-328 -651q-4 -8 -9 -12t-14 -4z" />
    <glyph glyph-name="eight" unicode="8" horiz-adv-x="600" 
d="M300 -8q-76 0 -130.5 22.5t-83 65.5t-28.5 104q0 49 20 87t56 62t84 30v-9q-67 14 -105.5 61.5t-38.5 111.5q0 59 28 100.5t79 63.5t119 22q69 0 119.5 -22t78.5 -63.5t28 -100.5q0 -42 -17.5 -78t-49.5 -60.5t-77 -34.5v9q72 -10 116 -58t44 -121q0 -61 -28.5 -104
t-82.5 -65.5t-131 -22.5zM300 32q98 0 148 38t50 115t-50 114.5t-148 37.5q-97 0 -147.5 -37.5t-50.5 -114.5t50.5 -115t147.5 -38zM300 377q57 0 97.5 18t62.5 51.5t22 79.5q0 70 -48 108.5t-134 38.5q-85 0 -133.5 -38.5t-48.5 -108.5t48.5 -109.5t133.5 -39.5z" />
    <glyph glyph-name="nine" unicode="9" horiz-adv-x="600" 
d="M257 -8q-48 0 -99.5 22t-86.5 62q-5 6 -6 13t1.5 13t7.5 9.5t11.5 2.5t13.5 -9q34 -37 75.5 -54.5t83.5 -17.5q72 0 122 37t76.5 111t26.5 184v110h6q-5 -62 -33.5 -108t-74.5 -71t-104 -25q-64 0 -112.5 28t-76 78t-27.5 114q0 65 28 115t76.5 78.5t111.5 28.5
q80 0 135.5 -40t84.5 -116t29 -183q0 -93 -18 -164t-53 -119.5t-85 -73.5t-113 -25zM281 312q52 0 91.5 23t62 63.5t22.5 93.5t-22.5 93.5t-62 63.5t-91.5 23t-91.5 -23t-62 -63.5t-22.5 -93.5t22.5 -93.5t62 -63.5t91.5 -23z" />
    <glyph glyph-name="colon" unicode=":" horiz-adv-x="211" 
d="M106 -3q-16 0 -27 11t-11 27q0 17 11 27.5t27 10.5q17 0 27 -10.5t10 -27.5q0 -16 -10 -27t-27 -11zM106 411q-16 0 -27 11t-11 27q0 17 11 27.5t27 10.5q17 0 27 -10.5t10 -27.5q0 -16 -10 -27t-27 -11z" />
    <glyph glyph-name="semicolon" unicode=";" horiz-adv-x="211" 
d="M108 -85q-7 -9 -14.5 -10.5t-12.5 2.5t-5.5 11.5t6.5 17.5q12 17 17.5 35.5t5.5 34.5l3 -9q-18 0 -29 11t-11 27q0 17 10 27.5t26 10.5q17 0 27.5 -12t10.5 -36q0 -17 -3.5 -37t-11 -39t-19.5 -34zM106 411q-16 0 -27 11t-11 27q0 17 11 27.5t27 10.5q17 0 27 -10.5
t10 -27.5q0 -16 -10 -27t-27 -11z" />
    <glyph glyph-name="less" unicode="&#x3c;" horiz-adv-x="600" 
d="M525 46l-448 213q-21 11 -21 28q0 9 5.5 16t15.5 12l448 213q8 4 14.5 2.5t10.5 -6t4.5 -11t-2 -12t-10.5 -9.5l-458 -216v22l458 -216q8 -4 10.5 -9.5t2 -12t-4.5 -11t-10.5 -6t-14.5 2.5z" />
    <glyph glyph-name="equal" unicode="=" horiz-adv-x="600" 
d="M71 367q-10 0 -15.5 5.5t-5.5 14.5t5.5 14t15.5 5h458q10 0 15.5 -5t5.5 -14q0 -10 -5.5 -15t-15.5 -5h-458zM71 168q-10 0 -15.5 5.5t-5.5 14.5t5.5 14t15.5 5h458q10 0 15.5 -5t5.5 -14q0 -10 -5.5 -15t-15.5 -5h-458z" />
    <glyph glyph-name="greater" unicode="&#x3e;" horiz-adv-x="600" 
d="M75 46q-8 -4 -14.5 -2.5t-10.5 6t-4.5 11t2.5 12t10 9.5l458 216v-22l-458 216q-7 4 -10 9.5t-2.5 12t4.5 11t10.5 6t14.5 -2.5l448 -213q21 -10 21 -28q0 -9 -5 -16t-16 -12z" />
    <glyph glyph-name="question" unicode="?" horiz-adv-x="429" 
d="M196 159q-7 0 -11 5t-4 15q0 38 9 71.5t29.5 68.5t55.5 77q29 35 46 62t24.5 52.5t7.5 52.5q0 50 -35 79.5t-96 29.5q-52 0 -96 -17t-82 -50q-9 -8 -17 -9.5t-13.5 2t-7.5 10t1 14.5t11 15q38 34 91 55t112 21q53 0 92.5 -18.5t61.5 -52.5t22 -79q0 -32 -9 -61t-28.5 -60
t-53.5 -71q-31 -37 -51 -68.5t-29.5 -60.5t-12.5 -61q-1 -10 -5 -16t-12 -6zM196 -3q-16 0 -27 11t-11 27q0 17 11 27.5t27 10.5q17 0 27 -10.5t10 -27.5q0 -16 -10 -27t-27 -11z" />
    <glyph glyph-name="at" unicode="@" horiz-adv-x="943" 
d="M484 -162q-95 0 -172 30.5t-131.5 87.5t-84 138t-29.5 183q0 96 31 176t88 138.5t135.5 90t172.5 31.5q113 0 199 -46.5t134.5 -129t48.5 -191.5q0 -87 -23.5 -151.5t-65.5 -100t-99 -35.5q-58 0 -86 35.5t-18 93.5l8 -19q-26 -52 -71.5 -81t-93.5 -29q-75 0 -116.5 47
t-41.5 130q0 74 28.5 132t78 91t111.5 33q56 0 91.5 -27.5t44.5 -75.5h-7l13 78q4 23 25 23q10 0 14.5 -6t2.5 -18l-44 -257q-2 -11 -3 -21.5t-1 -19.5q0 -36 17 -54t51 -18q44 0 76.5 31t51 87.5t18.5 131.5q0 97 -44 170.5t-121.5 115.5t-178.5 42q-114 0 -200.5 -50
t-135 -139.5t-48.5 -207.5q0 -125 46 -214.5t130 -137.5t199 -48q80 0 145 25t106 67q9 9 18 9.5t15 -5t6 -14t-9 -18.5q-47 -48 -119.5 -75.5t-161.5 -27.5zM428 98q50 0 89.5 30t62.5 82t23 117q0 64 -28.5 95t-87.5 31q-49 0 -89 -28t-63 -77t-23 -112q0 -67 30.5 -102.5
t85.5 -35.5z" />
    <glyph glyph-name="A" unicode="A" horiz-adv-x="716" 
d="M62 -6q-10 0 -15 4t-5 11.5t4 16.5l286 664q5 11 12 16t14 5q8 0 15 -5t11 -16l286 -664q4 -9 4 -16.5t-4 -11.5t-14 -4t-16.5 6t-10.5 15l-81 189l27 -9h-436l28 9l-81 -189q-4 -11 -11 -16t-13 -5zM357 648l-179 -420l-22 6h402l-20 -6l-179 420h-2z" />
    <glyph glyph-name="B" unicode="B" horiz-adv-x="666" 
d="M121 0q-12 0 -18.5 6.5t-6.5 18.5v655q0 12 6.5 18.5t18.5 6.5h233q72 0 122 -21.5t76.5 -62.5t26.5 -101q0 -67 -40 -111t-108 -58v14q75 -7 119.5 -52.5t44.5 -121.5q0 -94 -59 -142.5t-169 -48.5h-246zM138 39h228q92 0 138.5 36.5t46.5 112.5q0 77 -46.5 113
t-138.5 36h-228v-298zM138 376h213q90 0 137 37.5t47 107.5q0 71 -47 108t-137 37h-213v-290z" />
    <glyph glyph-name="C" unicode="C" horiz-adv-x="667" 
d="M381 -8q-99 0 -169 43.5t-107.5 124.5t-37.5 193q0 84 21 150.5t61.5 113t99 71.5t132.5 25q68 0 126.5 -21t99.5 -61q7 -7 9 -14.5t-0.5 -13.5t-7.5 -9.5t-12 -2.5t-15 8q-40 37 -89.5 55t-111.5 18q-86 0 -146 -37.5t-91 -109t-31 -172.5q0 -102 31 -173.5t91 -109
t146 -37.5q60 0 110 18.5t91 55.5q8 7 15 7.5t12 -3t7.5 -9.5t1.5 -13t-8 -13q-44 -42 -101 -63t-127 -21z" />
    <glyph glyph-name="D" unicode="D" horiz-adv-x="725" 
d="M121 0q-12 0 -18.5 6.5t-6.5 18.5v655q0 12 6.5 18.5t18.5 6.5h192q166 0 255.5 -89.5t89.5 -262.5q0 -86 -23 -152t-67 -110.5t-108 -67.5t-147 -23h-192zM138 39h171q76 0 133 20t95 59t57 98t19 137q0 156 -76 234.5t-228 78.5h-171v-627z" />
    <glyph glyph-name="E" unicode="E" horiz-adv-x="570" 
d="M121 0q-12 0 -18.5 6.5t-6.5 18.5v655q0 12 6.5 18.5t18.5 6.5h384q10 0 15.5 -5t5.5 -14q0 -10 -5.5 -15t-15.5 -5h-367v-289h347q10 0 15.5 -5t5.5 -14q0 -10 -5.5 -15t-15.5 -5h-347v-299h367q10 0 15.5 -5t5.5 -14q0 -10 -5.5 -15t-15.5 -5h-384z" />
    <glyph glyph-name="F" unicode="F" horiz-adv-x="536" 
d="M121 -6q-12 0 -18.5 6.5t-6.5 18.5v661q0 12 6.5 18.5t18.5 6.5h374q10 0 15.5 -5t5.5 -14q0 -10 -5.5 -15t-15.5 -5h-357v-289h337q10 0 15.5 -5t5.5 -14q0 -10 -5.5 -15t-15.5 -5h-337v-319q0 -25 -17 -25z" />
    <glyph glyph-name="G" unicode="G" horiz-adv-x="718" 
d="M402 -8q-109 0 -184 42.5t-113 123.5t-38 195q0 84 21 150.5t61.5 113t99 71.5t132.5 25q70 0 131 -21t104 -65q6 -6 7 -12.5t-1.5 -12.5t-7.5 -10t-11.5 -3.5t-12.5 6.5q-43 41 -95.5 59t-114.5 18q-86 0 -146 -37.5t-91 -109t-31 -172.5q0 -156 72 -238t217 -82
q56 0 106 10.5t93 29.5l-12 -38v281h-173q-10 0 -15.5 5.5t-5.5 14.5t5.5 14t15.5 5h192q10 0 15.5 -5.5t5.5 -15.5v-277q0 -8 -2.5 -14t-8.5 -9q-39 -18 -99 -30t-116 -12z" />
    <glyph glyph-name="H" unicode="H" horiz-adv-x="751" 
d="M117 -6q-10 0 -15.5 6t-5.5 16v673q0 11 5.5 16.5t15.5 5.5t15.5 -5.5t5.5 -16.5v-312h475v312q0 11 5.5 16.5t15.5 5.5t15.5 -5.5t5.5 -16.5v-673q0 -10 -5.5 -16t-15.5 -6t-15.5 6t-5.5 16v322h-475v-322q0 -10 -5 -16t-16 -6z" />
    <glyph glyph-name="I" unicode="I" horiz-adv-x="234" 
d="M117 -6q-10 0 -15.5 6t-5.5 16v673q0 11 5.5 16.5t15.5 5.5t15.5 -5.5t5.5 -16.5v-673q0 -10 -5 -16t-16 -6z" />
    <glyph glyph-name="J" unicode="J" horiz-adv-x="297" 
d="M12 -5q-11 -1 -17 5.5t-6 14.5q0 6 4.5 11.5t14.5 6.5l33 3q56 5 87 43t31 100v510q0 11 5.5 16.5t15.5 5.5t15.5 -5.5t5.5 -16.5v-512q0 -53 -18 -91.5t-53 -60.5t-86 -27z" />
    <glyph glyph-name="K" unicode="K" horiz-adv-x="590" 
d="M117 -6q-10 0 -15.5 6t-5.5 16v673q0 11 5.5 16.5t15.5 5.5t15.5 -5.5t5.5 -16.5v-312h2l359 319q10 8 18 11.5t16 3.5q10 0 15 -4t4 -10.5t-9 -13.5l-385 -341l2 32l401 -346q10 -8 11 -16t-4.5 -13t-15.5 -5q-8 0 -15 3.5t-15 10.5l-382 330h-2v-322q0 -10 -5 -16
t-16 -6z" />
    <glyph glyph-name="L" unicode="L" horiz-adv-x="527" 
d="M118 0q-10 0 -16 6t-6 16v667q0 11 5.5 16.5t15.5 5.5t15.5 -5.5t5.5 -16.5v-650h360q11 0 16.5 -5t5.5 -14q0 -10 -5.5 -15t-16.5 -5h-380z" />
    <glyph glyph-name="M" unicode="M" horiz-adv-x="844" 
d="M118 -6q-9 0 -14.5 6t-5.5 16v673q0 11 5 16.5t13 5.5q9 0 14 -4t9 -12l298 -568h-28l296 568q5 8 9.5 12t13.5 4q8 0 13 -5.5t5 -16.5v-673q0 -10 -5 -16t-14 -6q-10 0 -15 6t-5 16v649h24l-285 -545q-4 -8 -8.5 -12t-13.5 -4t-14 4.5t-9 11.5l-289 546h25v-650
q0 -10 -5 -16t-14 -6z" />
    <glyph glyph-name="N" unicode="N" horiz-adv-x="732" 
d="M116 -6q-9 0 -14.5 6t-5.5 16v672q0 11 5 17t13 6q9 0 13.5 -3t9.5 -11l482 -655h-22v647q0 11 5.5 16.5t14.5 5.5t14 -5.5t5 -16.5v-672q0 -11 -4.5 -17t-12.5 -6q-7 0 -12.5 3.5t-10.5 10.5l-482 655h21v-647q0 -10 -5 -16t-14 -6z" />
    <glyph glyph-name="O" unicode="O" horiz-adv-x="751" 
d="M375 -8q-95 0 -164 44t-106.5 125t-37.5 192q0 84 21 150.5t61 113t97 71.5t129 25q96 0 165.5 -43.5t106.5 -124t37 -191.5q0 -84 -21.5 -151t-61.5 -114t-97 -72t-129 -25zM375 33q84 0 143 37.5t90 109t31 173.5q0 152 -68.5 235.5t-195.5 83.5q-83 0 -142 -37.5
t-90 -109t-31 -172.5q0 -151 69 -235.5t194 -84.5z" />
    <glyph glyph-name="P" unicode="P" horiz-adv-x="616" 
d="M117 -6q-10 0 -15.5 6t-5.5 16v667q0 11 6 16.5t16 5.5h233q111 0 170 -53t59 -151t-59 -151t-170 -53h-213v-281q0 -10 -5 -16t-16 -6zM138 336h212q93 0 139.5 42t46.5 123t-46.5 123t-139.5 42h-212v-330z" />
    <glyph glyph-name="Q" unicode="Q" horiz-adv-x="751" 
d="M595 -150q6 -9 6 -16.5t-4 -12.5t-10.5 -6.5t-13 2t-12.5 12.5l-60 97q-19 32 -51 49t-75 17l40 20q48 0 74.5 -16.5t54.5 -63.5zM375 -8q-95 0 -164 44t-106.5 125t-37.5 192q0 84 21 150.5t61 113t97 71.5t129 25q96 0 165.5 -43.5t106.5 -124t37 -191.5
q0 -84 -21.5 -151t-61.5 -114t-97 -72t-129 -25zM375 33q84 0 143 37.5t90 109t31 173.5q0 152 -68.5 235.5t-195.5 83.5q-83 0 -142 -37.5t-90 -109t-31 -172.5q0 -151 69 -235.5t194 -84.5z" />
    <glyph glyph-name="R" unicode="R" horiz-adv-x="654" 
d="M117 -6q-10 0 -15.5 6t-5.5 16v667q0 11 6 16.5t16 5.5h233q111 0 170 -51t59 -146q0 -61 -27 -104.5t-78.5 -66t-123.5 -22.5l11 12h8q38 0 65.5 -20t51.5 -65l115 -214q5 -8 4.5 -16t-5 -13t-11.5 -5q-9 0 -14.5 4.5t-9.5 11.5l-116 216q-28 52 -62 69t-93 17h-157
v-296q0 -10 -5 -16t-16 -6zM138 351h209q95 0 142 40t47 118q0 77 -47 117t-142 40h-209v-315z" />
    <glyph glyph-name="S" unicode="S" horiz-adv-x="600" 
d="M310 -8q-50 0 -95 9t-83.5 26t-69.5 42q-7 6 -9.5 13t0 13.5t7.5 10.5t12 4t14 -6q47 -37 99.5 -54t124.5 -17q100 0 150.5 40t50.5 106q0 54 -37 84.5t-121 47.5l-99 20q-94 19 -140 63t-46 119q0 45 17.5 81.5t49.5 63t76 41t97 14.5q66 0 121 -19.5t100 -60.5
q7 -6 9 -13.5t-0.5 -14t-7 -10t-11.5 -3.5t-14 7q-43 38 -91 55.5t-106 17.5q-59 0 -103 -19.5t-68.5 -55.5t-24.5 -84q0 -58 34 -91.5t110 -48.5l99 -20q102 -21 151 -61.5t49 -111.5q0 -42 -17 -76.5t-48.5 -59.5t-77 -38.5t-102.5 -13.5z" />
    <glyph glyph-name="T" unicode="T" horiz-adv-x="586" 
d="M293 -6q-10 0 -15.5 6t-5.5 16v650h-253q-10 0 -16 5.5t-6 14.5t6 14t16 5h548q11 0 16.5 -5t5.5 -14q0 -10 -5.5 -15t-16.5 -5h-253v-650q0 -10 -5 -16t-16 -6z" />
    <glyph glyph-name="U" unicode="U" horiz-adv-x="720" 
d="M360 -8q-66 0 -116.5 18t-84 53.5t-51 87.5t-17.5 120v418q0 11 5.5 16.5t15.5 5.5t15.5 -5.5t5.5 -16.5v-412q0 -123 57.5 -183.5t169.5 -60.5q113 0 170 60.5t57 183.5v412q0 11 5.5 16.5t15.5 5.5t15.5 -5.5t5.5 -16.5v-418q0 -90 -30.5 -152.5t-90.5 -94.5t-148 -32z
" />
    <glyph glyph-name="V" unicode="V" horiz-adv-x="667" 
d="M334 -6q-11 0 -18 6t-12 17l-287 668q-3 9 -1.5 14.5t7 8.5t12.5 3q9 0 14 -4.5t9 -12.5l288 -670h-23l287 670q4 8 9.5 12.5t14.5 4.5q8 0 12.5 -3.5t5.5 -9t-2 -13.5l-287 -668q-4 -11 -11 -17t-18 -6z" />
    <glyph glyph-name="W" unicode="W" horiz-adv-x="1091" 
d="M303 -6q-10 0 -16 6t-11 18l-231 667q-4 11 1.5 18.5t16.5 7.5q9 0 14.5 -4.5t9.5 -15.5l231 -672h-30l231 668q5 12 10.5 18t15.5 6t15.5 -6t9.5 -18l231 -668h-28l232 672q3 10 9 15t16 5q11 0 16 -7t0 -19l-231 -667q-4 -12 -10 -18t-17 -6t-17 6t-11 18l-225 653h20
l-226 -653q-4 -12 -9.5 -18t-16.5 -6z" />
    <glyph glyph-name="X" unicode="X" horiz-adv-x="631" 
d="M57 -6q-9 0 -14.5 4.5t-6 11t4.5 13.5l254 344v-10l-237 322q-6 9 -5.5 16t6 11.5t12.5 4.5q8 0 13.5 -3t10.5 -11l228 -310h-12l225 310q5 8 10.5 11t13.5 3t13 -4.5t5.5 -11.5t-5.5 -16l-237 -322v10l254 -344q5 -7 4.5 -13.5t-6 -11t-14.5 -4.5q-6 0 -12.5 3.5
t-11.5 10.5l-245 334h21l-245 -334q-5 -7 -11.5 -10.5t-12.5 -3.5z" />
    <glyph glyph-name="Y" unicode="Y" horiz-adv-x="577" 
d="M288 -6q-10 0 -15.5 6t-5.5 17v350l11 -39l-260 351q-6 9 -6 16.5t5 11.5t12 4q8 0 14 -3t11 -11l243 -329h-15l243 329q5 8 10.5 11t13.5 3q7 0 11.5 -4t5 -11.5t-6.5 -16.5l-260 -351l10 39v-350q0 -23 -21 -23z" />
    <glyph glyph-name="Z" unicode="Z" horiz-adv-x="575" 
d="M69 0q-8 0 -13.5 3.5t-8 9.5t-0.5 14t8 17l447 645v-23h-436q-11 0 -17 5.5t-6 14.5t6 14t17 5h452q8 0 13.5 -3.5t8 -9.5t0.5 -14t-8 -17l-447 -645v23h450q11 0 17 -5t6 -14q0 -10 -6 -15t-17 -5h-466z" />
    <glyph glyph-name="bracketleft" unicode="[" horiz-adv-x="281" 
d="M132 -180q-8 0 -14 6t-6 14v845q0 8 6 14t14 6h131q8 0 14 -5t6 -13t-6 -13.5t-14 -5.5h-109v-811h109q8 0 14 -5.5t6 -13.5q0 -7 -6 -12.5t-14 -5.5h-131z" />
    <glyph glyph-name="backslash" unicode="\" horiz-adv-x="256" 
d="M231 -39l-244 756q-2 8 0 14t7 9t11.5 3t11.5 -3.5t8 -11.5l244 -756q2 -8 0 -14t-7 -9t-11.5 -3t-11.5 3.5t-8 11.5z" />
    <glyph glyph-name="bracketright" unicode="]" horiz-adv-x="281" 
d="M18 -180q-8 0 -14 5.5t-6 12.5q0 8 6 13.5t14 5.5h109v811h-109q-8 0 -14 5.5t-6 13.5t6 13t14 5h131q8 0 14 -6t6 -14v-845q0 -8 -6 -14t-14 -6h-131z" />
    <glyph glyph-name="asciicircum" unicode="^" horiz-adv-x="600" 
d="M77 134q-13 0 -17 8.5t2 21.5l216 456q4 8 9.5 11t12.5 3q15 0 22 -14l216 -456q6 -13 2.5 -21.5t-17.5 -8.5q-7 0 -12 4t-8 11l-214 450h22l-214 -450q-4 -7 -8 -11t-12 -4z" />
    <glyph glyph-name="underscore" unicode="_" horiz-adv-x="500" 
d="M34 -33q-8 0 -14 4.5t-6 11.5t6 12t14 5h432q8 0 14 -5t6 -12t-6 -11.5t-14 -4.5h-432z" />
    <glyph glyph-name="grave" unicode="`" horiz-adv-x="338" 
d="M208 552l-104 171q-5 8 -4 15.5t6 12.5t12 6.5t14.5 -1.5t12.5 -13l91 -175q4 -8 2 -14t-8 -8.5t-12 -1t-10 7.5z" />
    <glyph glyph-name="a" unicode="a" horiz-adv-x="514" 
d="M231 -8q-47 0 -85 19t-60 51.5t-22 72.5q0 54 26.5 84.5t91 43t177.5 12.5h41v-37h-39q-99 0 -153.5 -8.5t-76 -30t-21.5 -60.5q0 -48 33.5 -78.5t90.5 -30.5q46 0 80.5 22.5t54.5 61t20 87.5v114q0 72 -28 105t-90 33q-40 0 -76.5 -11t-76.5 -34q-9 -5 -15.5 -4
t-10.5 5.5t-5.5 11t1 12.5t9.5 10q41 25 85 37t87 12q55 0 91 -19t53.5 -58t17.5 -100v-299q0 -10 -5 -16t-15 -6t-15.5 6t-5.5 16v105h11q-10 -40 -34 -69t-58.5 -44.5t-77.5 -15.5z" />
    <glyph glyph-name="b" unicode="b" horiz-adv-x="568" 
d="M300 -8q-70 0 -118.5 36.5t-65.5 97.5h11v-110q0 -10 -5.5 -16t-15.5 -6t-15.5 6t-5.5 16v673q0 11 5.5 16.5t15.5 5.5t15.5 -5.5t5.5 -16.5v-331h-11q17 62 65.5 98t118.5 36q66 0 114.5 -30.5t74.5 -86.5t26 -133q0 -76 -26.5 -132.5t-74.5 -87t-114 -30.5zM299 31
q53 0 92 25t60 72.5t21 113.5q0 100 -46.5 155.5t-126.5 55.5q-53 0 -92 -25t-60 -72t-21 -114q0 -100 47 -155.5t126 -55.5z" />
    <glyph glyph-name="c" unicode="c" horiz-adv-x="455" 
d="M274 -8q-69 0 -118.5 32t-76 89t-26.5 133q0 57 15 102.5t43.5 77.5t69.5 49t93 17q38 0 77.5 -13.5t70.5 -44.5q5 -5 5.5 -11t-2 -11.5t-7.5 -8.5t-12 -2.5t-14 7.5q-29 26 -59.5 35.5t-59.5 9.5q-43 0 -76 -14t-55.5 -40.5t-34 -65t-11.5 -88.5q0 -100 46 -157t131 -57
q29 0 59.5 9.5t59.5 35.5q7 7 14 7.5t12 -2.5t7.5 -8.5t2 -11.5t-5.5 -11q-31 -31 -70.5 -44.5t-77.5 -13.5z" />
    <glyph glyph-name="d" unicode="d" horiz-adv-x="568" 
d="M268 -8q-65 0 -113.5 30.5t-75 87t-26.5 132.5q0 77 26 133t74.5 86.5t114.5 30.5q70 0 119 -36t65 -98h-11v331q0 11 5.5 16.5t15.5 5.5t15.5 -5.5t5.5 -16.5v-673q0 -10 -5.5 -16t-15.5 -6t-15.5 6t-5.5 16v110h11q-16 -61 -65 -97.5t-119 -36.5zM269 31q53 0 92 25
t60 72.5t21 113.5q0 100 -46.5 155.5t-126.5 55.5q-53 0 -92 -25t-60 -72t-21 -114q0 -100 47 -155.5t126 -55.5z" />
    <glyph glyph-name="e" unicode="e" horiz-adv-x="523" 
d="M286 -8q-72 0 -124 30t-80.5 85.5t-28.5 132.5q0 76 28.5 132.5t79 88t116.5 31.5q47 0 83.5 -16t62 -46t39 -73t13.5 -97q0 -13 -5.5 -19.5t-16.5 -6.5h-373v37h373l-17 -12q0 61 -18 104.5t-53.5 67t-88.5 23.5q-58 0 -98.5 -27.5t-61 -74.5t-20.5 -107v-5
q0 -100 49.5 -154.5t138.5 -54.5q40 0 75 10.5t69 37.5q7 6 14.5 6.5t13 -3t8 -9t0.5 -12.5t-10 -13q-31 -26 -76 -41t-92 -15z" />
    <glyph glyph-name="f" unicode="f" horiz-adv-x="306" 
d="M126 -6q-10 0 -15.5 6t-5.5 16v432h-79q-10 0 -16 5t-6 13t6 13t16 5h89l-10 -11v42q0 88 41.5 136.5t124.5 55.5l26 2q8 1 13 -2.5t6.5 -8.5t0 -10.5t-5.5 -9.5t-10 -5l-32 -3q-64 -6 -93 -44.5t-29 -110.5v-45l-8 14h136q11 0 16.5 -5t5.5 -13t-5.5 -13t-16.5 -5h-128
v-432q0 -22 -21 -22z" />
    <glyph glyph-name="g" unicode="g" horiz-adv-x="570" 
d="M290 -188q-53 0 -103.5 15t-91.5 47q-5 4 -6.5 10t0.5 11.5t6.5 10t10 5t11.5 -3.5q44 -31 84.5 -43.5t89.5 -12.5q75 0 114 42.5t39 121.5v133h10q-14 -64 -64 -100.5t-119 -36.5q-67 0 -116 30.5t-75.5 85t-26.5 125.5q0 54 15 98t43.5 75.5t68.5 49t91 17.5
q69 0 119 -36.5t64 -100.5h-11v113q0 11 5.5 16.5t15.5 5.5t15.5 -5.5t5.5 -16.5v-446q0 -104 -49 -157t-146 -53zM270 50q54 0 93 25t60 70.5t21 106.5q0 92 -47 146.5t-127 54.5q-53 0 -92.5 -24.5t-60.5 -69.5t-21 -107q0 -92 47 -147t127 -55z" />
    <glyph glyph-name="h" unicode="h" horiz-adv-x="553" 
d="M106 -6q-10 0 -15.5 6t-5.5 16v673q0 11 5.5 16.5t15.5 5.5t15.5 -5.5t5.5 -16.5v-323h-12q20 63 69 94.5t113 31.5q58 0 96.5 -20.5t57.5 -61.5t19 -102v-292q0 -10 -5.5 -16t-15.5 -6t-15.5 6t-5.5 16v288q0 77 -31 113t-100 36q-77 0 -123.5 -47.5t-46.5 -127.5v-262
q0 -22 -21 -22z" />
    <glyph glyph-name="i" unicode="i" horiz-adv-x="212" 
d="M106 -3q-10 0 -15.5 6t-5.5 16v446q0 11 5.5 16.5t15.5 5.5t15.5 -5.5t5.5 -16.5v-446q0 -10 -5 -16t-16 -6zM106 616q-16 0 -25.5 9.5t-9.5 25.5q0 17 9.5 25.5t25.5 8.5q17 0 26 -8.5t9 -25.5q0 -16 -9 -25.5t-26 -9.5z" />
    <glyph glyph-name="j" unicode="j" horiz-adv-x="215" 
d="M-36 -192q-9 0 -14.5 3.5t-7.5 9.5t-1 11.5t6 9.5t14 4q64 2 95.5 32.5t31.5 99.5v490q0 11 5.5 16.5t15.5 5.5t15.5 -5.5t5.5 -16.5v-489q0 -58 -20.5 -96t-57.5 -56.5t-88 -18.5zM109 616q-16 0 -25.5 9.5t-9.5 25.5q0 17 9.5 25.5t25.5 8.5q17 0 26 -8.5t9 -25.5
q0 -16 -9 -25.5t-26 -9.5z" />
    <glyph glyph-name="k" unicode="k" horiz-adv-x="468" 
d="M106 -6q-10 0 -15.5 6t-5.5 16v673q0 11 5.5 16.5t15.5 5.5t15.5 -5.5t5.5 -16.5v-429h2l241 215q8 7 15 11t17 4q8 0 13 -4.5t4.5 -11.5t-8.5 -15l-257 -228v36l279 -238q10 -8 11 -16t-3.5 -13.5t-12.5 -5.5q-9 0 -15.5 4t-17.5 13l-266 226h-2v-221q0 -22 -21 -22z
" />
    <glyph glyph-name="l" unicode="l" horiz-adv-x="275" 
d="M217 -8q-63 0 -97.5 40.5t-34.5 113.5v543q0 11 5.5 16.5t15.5 5.5t15.5 -5.5t5.5 -16.5v-536q0 -61 24 -91.5t70 -30.5q10 0 17 1t14 1q8 0 12.5 -3t4.5 -12q0 -11 -6 -16t-20 -8q-7 -1 -13.5 -1.5t-12.5 -0.5z" />
    <glyph glyph-name="m" unicode="m" horiz-adv-x="838" 
d="M108 -6q-10 0 -15.5 6t-5.5 16v452q0 11 5.5 16.5t15.5 5.5t15 -5.5t5 -16.5v-102h-11q18 62 61 94t104 32q65 0 103.5 -31.5t49.5 -95.5h-15q16 58 62.5 92.5t111.5 34.5q53 0 88 -20.5t53 -61t18 -102.5v-292q0 -10 -5.5 -16t-15.5 -6t-15.5 6t-5.5 16v288
q0 77 -27.5 113t-91.5 36q-69 0 -110 -47.5t-41 -127.5v-262q0 -10 -5.5 -16t-15.5 -6t-15.5 6t-5.5 16v288q0 77 -27.5 113t-91.5 36q-69 0 -110 -47.5t-41 -127.5v-262q0 -22 -21 -22z" />
    <glyph glyph-name="n" unicode="n" horiz-adv-x="553" 
d="M106 -6q-10 0 -15.5 6t-5.5 16v452q0 11 5.5 16.5t15.5 5.5t15 -5.5t5 -16.5v-102h-11q20 63 69 94.5t113 31.5q58 0 96.5 -20t57.5 -61t19 -103v-292q0 -10 -5.5 -16t-15.5 -6t-15.5 6t-5.5 16v288q0 77 -31 113t-100 36q-77 0 -123.5 -47.5t-46.5 -127.5v-262
q0 -22 -21 -22z" />
    <glyph glyph-name="o" unicode="o" horiz-adv-x="538" 
d="M269 -8q-66 0 -114.5 31t-75 87t-26.5 132q0 57 15 103t43.5 79t68.5 50.5t89 17.5q66 0 114.5 -31t75 -87t26.5 -132q0 -57 -15 -103t-43.5 -79t-68 -50.5t-89.5 -17.5zM269 31q53 0 92 25t60 72.5t21 113.5q0 100 -46.5 155.5t-126.5 55.5q-53 0 -92 -25t-60 -72
t-21 -114q0 -100 47 -155.5t126 -55.5z" />
    <glyph glyph-name="p" unicode="p" horiz-adv-x="568" 
d="M106 -186q-10 0 -15.5 6t-5.5 16v632q0 11 5.5 16.5t15.5 5.5t15.5 -5.5t5.5 -16.5v-110h-11q17 62 65.5 98t118.5 36q66 0 114 -30.5t74.5 -86.5t26.5 -133q0 -76 -26 -132.5t-74.5 -87t-114.5 -30.5q-70 0 -118.5 36.5t-65.5 97.5h11v-290q0 -10 -5.5 -16t-15.5 -6z
M299 31q53 0 92 25t60 72.5t21 113.5q0 100 -46.5 155.5t-126.5 55.5q-53 0 -92 -25t-60 -72t-21 -114q0 -100 47 -155.5t126 -55.5z" />
    <glyph glyph-name="q" unicode="q" horiz-adv-x="568" 
d="M462 -186q-10 0 -15.5 6t-5.5 16v290h11q-16 -61 -65 -97.5t-119 -36.5q-66 0 -114.5 30.5t-74.5 87t-26 132.5q0 77 26.5 133t75 86.5t113.5 30.5q70 0 119 -36t65 -98h-11v110q0 11 5.5 16.5t15.5 5.5t15.5 -5.5t5.5 -16.5v-632q0 -10 -5.5 -16t-15.5 -6zM269 31
q53 0 92 25t60 72.5t21 113.5q0 100 -46.5 155.5t-126.5 55.5q-53 0 -92 -25t-60 -72t-21 -114q0 -100 47 -155.5t126 -55.5z" />
    <glyph glyph-name="r" unicode="r" horiz-adv-x="327" 
d="M106 -6q-10 0 -15.5 6t-5.5 16v452q0 11 5.5 16.5t15.5 5.5t15 -5.5t5 -16.5v-97h-10q19 59 67.5 91t112.5 32q9 0 15.5 -3.5t6.5 -13.5t-5 -15.5t-17 -6.5l-12 -1q-74 -7 -115.5 -50t-41.5 -114v-274q0 -10 -5 -16t-16 -6z" />
    <glyph glyph-name="s" unicode="s" horiz-adv-x="475" 
d="M236 -8q-46 0 -89 13t-84 44q-5 4 -6.5 10t0 12t6 10.5t11 4.5t13.5 -5q38 -28 76 -39t76 -11q65 0 99.5 25t34.5 68q0 34 -22.5 53.5t-72.5 31.5l-83 20q-63 15 -92.5 46t-29.5 80q0 41 21.5 72t61 48t91.5 17q44 0 84.5 -14t68.5 -42q6 -6 7.5 -12.5t-0.5 -12.5t-7 -9
t-11.5 -2.5t-13.5 6.5q-28 24 -61 35.5t-68 11.5q-61 0 -95 -26.5t-34 -70.5q0 -34 21 -55t67 -32l83 -20q65 -16 97 -45t32 -78q0 -61 -49 -97.5t-132 -36.5z" />
    <glyph glyph-name="t" unicode="t" horiz-adv-x="320" 
d="M255 -8q-50 0 -84 19.5t-51 56t-17 88.5v292h-81q-10 0 -16 5t-6 13t6 13t16 5h81v135q0 11 5.5 16.5t15.5 5.5t15.5 -5.5t5.5 -16.5v-135h143q11 0 16.5 -5t5.5 -13t-5.5 -13t-16.5 -5h-143v-283q0 -65 26 -99.5t87 -34.5q21 0 34.5 4.5t22.5 4.5q6 0 10.5 -5t4.5 -14
q0 -5 -2.5 -10.5t-9.5 -7.5q-10 -4 -28.5 -7.5t-34.5 -3.5z" />
    <glyph glyph-name="u" unicode="u" horiz-adv-x="545" 
d="M254 -8q-57 0 -95 21t-57 62t-19 102v291q0 11 5.5 16.5t15.5 5.5t15.5 -5.5t5.5 -16.5v-287q0 -76 31 -113t98 -37q73 0 118.5 48.5t45.5 127.5v261q0 11 5.5 16.5t15.5 5.5t15.5 -5.5t5.5 -16.5v-452q0 -22 -20 -22q-10 0 -15.5 6t-5.5 16v105h12q-19 -63 -67 -96
t-110 -33z" />
    <glyph glyph-name="v" unicode="v" horiz-adv-x="504" 
d="M252 -6q-11 0 -19 6.5t-14 19.5l-186 435q-4 10 -3 17.5t6.5 12.5t15.5 5q9 0 13.5 -4.5t8.5 -12.5l190 -458h-24l191 458q4 8 8.5 12.5t14.5 4.5t14.5 -5t5 -12.5t-3.5 -16.5l-185 -436q-5 -13 -13.5 -19.5t-19.5 -6.5z" />
    <glyph glyph-name="w" unicode="w" horiz-adv-x="830" 
d="M235 -6q-10 0 -18.5 6t-13.5 19l-153 436q-4 12 -2 19.5t7.5 11.5t12.5 4q9 0 14 -4t8 -14l157 -459h-26l162 452q5 13 13.5 19t19.5 6t20 -6t13 -19l158 -452h-26l161 459q4 11 8.5 14.5t14.5 3.5t14 -5t4.5 -13t-2.5 -17l-155 -436q-4 -13 -12.5 -19t-18.5 -6t-18.5 6
t-13.5 19l-162 458h31l-165 -458q-4 -13 -12.5 -19t-19.5 -6z" />
    <glyph glyph-name="x" unicode="x" horiz-adv-x="506" 
d="M60 -7q-6 0 -11.5 4t-6 11.5t7.5 17.5l188 237v-26l-176 220q-8 10 -7.5 17.5t6 11.5t11.5 4q8 0 14 -3.5t11 -10.5l164 -206h-15l164 206q5 7 11 10.5t14 3.5q6 0 11.5 -4t6 -11.5t-7.5 -17.5l-174 -217v19l186 -233q8 -10 7.5 -17.5t-6 -11.5t-11.5 -4q-8 0 -14.5 3.5
t-12.5 10.5l-175 220h16l-175 -220q-5 -7 -11.5 -10.5t-14.5 -3.5z" />
    <glyph glyph-name="y" unicode="y" horiz-adv-x="504" 
d="M180 -186q-9 0 -14 5t-5 13t3 16l69 159v-20l-200 468q-4 10 -3 17.5t6.5 12.5t15.5 5q9 0 13.5 -4.5t8.5 -12.5l190 -459h-24l191 459q4 9 8.5 13t14.5 4t14.5 -5t5 -12.5t-3.5 -16.5l-266 -624q-4 -10 -9 -14t-15 -4z" />
    <glyph glyph-name="z" unicode="z" horiz-adv-x="454" 
d="M77 0q-8 0 -12.5 3t-6.5 8.5t0 12.5t8 14l303 423v-13h-296q-9 0 -14 5t-5 13t5 13t14 5h317q9 0 14.5 -3t7.5 -8t0.5 -11.5t-6.5 -13.5l-306 -426v14h308q19 0 19 -18q0 -8 -5 -13t-14 -5h-331z" />
    <glyph glyph-name="braceleft" unicode="{" horiz-adv-x="318" 
d="M231 -180q-27 0 -45 9.5t-27.5 28.5t-9.5 47v257q0 42 -18 61.5t-64 20.5q-8 0 -13.5 6t-5.5 13q0 8 5.5 13.5t13.5 5.5q46 1 64 20.5t18 61.5v256q0 42 21 63.5t61 21.5h69q8 0 14 -5t6 -13t-6 -13.5t-14 -5.5h-64q-22 0 -33.5 -11.5t-11.5 -34.5v-261q0 -29 -11 -52
t-30 -35.5t-45 -12.5v4q26 0 45 -12.5t30 -35t11 -52.5v-262q0 -23 11.5 -34.5t33.5 -11.5h64q8 0 14 -5.5t6 -13.5q0 -7 -6 -12.5t-14 -5.5h-69z" />
    <glyph glyph-name="bar" unicode="|" horiz-adv-x="244" 
d="M122 -186q-10 0 -15.5 6t-5.5 16v853q0 11 5.5 16.5t15.5 5.5t15.5 -5.5t5.5 -16.5v-853q0 -22 -21 -22z" />
    <glyph glyph-name="braceright" unicode="}" horiz-adv-x="318" 
d="M18 -180q-8 0 -14 5.5t-6 12.5q0 8 6 13.5t14 5.5h64q23 0 34 11.5t11 34.5v262q0 30 11 52.5t30.5 35t44.5 12.5v-4q-25 0 -44.5 12.5t-30.5 35.5t-11 52v261q0 23 -11 34.5t-34 11.5h-64q-8 0 -14 5.5t-6 13.5t6 13t14 5h69q27 0 45.5 -9.5t27.5 -28.5t9 -47v-256
q0 -42 18 -62t64 -20q8 0 13.5 -5.5t5.5 -13.5q0 -7 -5.5 -13t-13.5 -6q-46 0 -64 -20t-18 -62v-257q0 -42 -20.5 -63.5t-61.5 -21.5h-69z" />
    <glyph glyph-name="asciitilde" unicode="~" horiz-adv-x="600" 
d="M420 224q-26 0 -58 10.5t-75 35.5t-65 33t-39 8q-27 0 -47.5 -13t-36.5 -42q-5 -9 -13 -11.5t-14.5 0.5t-9.5 10t1 16q19 41 49.5 60t68.5 19q26 0 55 -9.5t72 -33.5q41 -22 64.5 -33t44.5 -11q27 0 47.5 13.5t36.5 41.5q5 9 13 11.5t14.5 -0.5t9.5 -10t-1 -16
q-19 -40 -49 -59.5t-68 -19.5z" />
    <glyph glyph-name="uni00A0" unicode="&#xa0;" horiz-adv-x="246" 
 />
    <glyph glyph-name="exclamdown" unicode="&#xa1;" horiz-adv-x="211" 
d="M106 -186q-13 0 -19.5 7t-6.5 20l11 469q0 10 4.5 14.5t10.5 4.5t10 -4.5t4 -14.5l11 -469q0 -13 -6.5 -20t-18.5 -7zM106 411q-16 0 -27 11t-11 27q0 17 11 27.5t27 10.5q17 0 27 -10.5t10 -27.5q0 -16 -10 -27t-27 -11z" />
    <glyph glyph-name="cent" unicode="&#xa2;" horiz-adv-x="600" 
d="M316 -121q-8 0 -14 6t-6 15v108l10 -14q-61 3 -107.5 35.5t-73 88t-26.5 125.5q0 51 14.5 94.5t42 76.5t65.5 52.5t84 23.5l-9 -22v121q0 9 6 15t14 6t14 -6t6 -15v-121l-9 22q40 0 81 -14t69 -40q6 -5 7.5 -11.5t-1 -12t-7.5 -8.5t-12.5 -2t-16.5 8q-26 21 -58 31
t-66 10q-41 0 -74.5 -15t-57.5 -42.5t-36.5 -66t-12.5 -85.5q0 -97 48.5 -153t131.5 -56q35 0 67 10t59 30q10 7 17.5 8t12.5 -2t6.5 -9t0 -12t-7.5 -10q-29 -26 -70.5 -40.5t-81.5 -14.5l11 15v-108q0 -9 -5.5 -15t-14.5 -6z" />
    <glyph glyph-name="sterling" unicode="&#xa3;" horiz-adv-x="600" 
d="M65 0q-8 0 -14 6t-6 14t6 13.5t14 5.5h104l-7 -9v314l7 -9h-104q-8 0 -14 5.5t-6 12.5q0 8 6 13t14 5h104l-7 -5v156q0 62 22 104.5t66.5 64.5t109.5 22q51 0 101 -18.5t86 -53.5q7 -6 7.5 -13t-2.5 -13t-8.5 -9.5t-12 -3t-12.5 6.5q-35 34 -75.5 48.5t-90.5 14.5
q-73 0 -111 -37t-38 -111v-158l-5 5h183q8 0 14 -5t6 -13q0 -7 -6 -12.5t-14 -5.5h-178v-296h327q8 0 14 -5.5t6 -13.5t-6 -14t-14 -6h-466z" />
    <glyph glyph-name="currency" unicode="&#xa4;" horiz-adv-x="600" 
d="M51 -10q-8 8 -8 18.5t8 18.5l62 63q-24 32 -38 72t-14 83q0 44 13.5 84t38.5 71l-62 64q-7 8 -7 18t7 18t18 7.5t19 -9.5l60 -62q31 27 70.5 42t82.5 15t81.5 -14.5t69.5 -40.5l58 60q8 9 19 9.5t18 -7.5q8 -8 8 -18t-9 -19l-60 -60q26 -33 40.5 -73t14.5 -85t-14.5 -85
t-40.5 -72l60 -61q8 -9 8 -19t-8 -18q-7 -7 -18 -7t-19 8l-58 61q-31 -26 -69 -40.5t-81 -14.5t-82 15t-71 41l-61 -62q-8 -8 -18 -8.5t-18 7.5zM300 40q54 0 97.5 27.5t69 74t25.5 103.5t-25.5 103.5t-69 74.5t-97.5 27q-53 0 -96.5 -27.5t-69.5 -74t-26 -103.5t26 -103.5
t69.5 -74t96.5 -27.5z" />
    <glyph glyph-name="yen" unicode="&#xa5;" horiz-adv-x="600" 
d="M300 -6q-10 0 -15.5 6t-5.5 17v172h-188q-10 0 -15.5 5t-5.5 13t5.5 13t15.5 5h188v114h-188q-10 0 -15.5 5t-5.5 13t5.5 13t15.5 5h164v-7l-230 311q-6 9 -6 16.5t5 11.5t12 4q8 0 14 -3t11 -11l247 -335h-15l246 334q5 8 11 11.5t14 3.5t12.5 -4.5t5 -12t-6.5 -16.5
l-228 -310v7h162q10 0 15.5 -5t5.5 -13t-5.5 -13t-15.5 -5h-188v-114h188q10 0 15.5 -5t5.5 -13t-5.5 -13t-15.5 -5h-188v-172q0 -23 -21 -23z" />
    <glyph glyph-name="brokenbar" unicode="&#xa6;" horiz-adv-x="244" 
d="M122 366q-10 0 -15.5 6t-5.5 16v301q0 11 5.5 16.5t15.5 5.5t15.5 -5.5t5.5 -16.5v-301q0 -22 -21 -22zM122 -186q-10 0 -15.5 6t-5.5 16v301q0 11 5.5 16.5t15.5 5.5t15.5 -5.5t5.5 -16.5v-301q0 -22 -21 -22z" />
    <glyph glyph-name="section" unicode="&#xa7;" horiz-adv-x="523" 
d="M234 -188q-56 0 -102 15t-76 42q-5 4 -6 10t1 12t6.5 10t11 4t13.5 -6q30 -23 70.5 -35.5t84.5 -12.5q45 0 80 15.5t54.5 45.5t19.5 73q0 45 -22.5 77.5t-81.5 60.5l-95 46q-56 28 -87.5 53.5t-44 55t-12.5 65.5q0 37 18.5 73.5t43.5 57.5l-5 -14q-5 10 -11 28.5t-6 49.5
q0 55 26 93.5t70.5 59.5t98.5 21q51 0 95.5 -14.5t75.5 -41.5q6 -5 7.5 -12t-0.5 -12.5t-7 -9.5t-11.5 -3.5t-13.5 6.5q-28 23 -68 35.5t-81 12.5q-42 0 -75.5 -15.5t-53 -45.5t-19.5 -73q0 -45 22.5 -77t81.5 -61l95 -46q57 -27 88 -53t43.5 -55t12.5 -66t-18 -73.5
t-44 -57.5l5 14q5 -10 11 -28.5t6 -49.5q0 -54 -26.5 -93t-72 -60t-102.5 -21zM89 345q0 -40 25 -71.5t95 -65.5l81 -39q47 -22 75 -45t43 -45l-19 1q22 18 33.5 43.5t11.5 55.5q0 41 -24.5 72t-95.5 65l-81 39q-46 23 -74.5 45.5t-43.5 44.5l19 -1q-22 -18 -33.5 -43.5
t-11.5 -55.5z" />
    <glyph glyph-name="dieresis" unicode="&#xa8;" horiz-adv-x="428" 
d="M295 617q-16 0 -25 8.5t-9 24.5t9 24.5t25 8.5t24.5 -8.5t8.5 -24.5t-8.5 -24.5t-24.5 -8.5zM134 617q-16 0 -25 8.5t-9 24.5t9 24.5t25 8.5t24.5 -8.5t8.5 -24.5t-8.5 -24.5t-24.5 -8.5z" />
    <glyph glyph-name="copyright" unicode="&#xa9;" horiz-adv-x="815" 
d="M408 -8q-76 0 -142 27.5t-115 76.5t-76.5 115t-27.5 142q0 77 27.5 142.5t76.5 114t114.5 76t142.5 27.5t142.5 -27.5t114 -76t76 -114t27.5 -142.5q0 -76 -27.5 -142t-76 -115t-114 -76.5t-142.5 -27.5zM408 28q68 0 127 24.5t103 69t68.5 103.5t24.5 128t-24.5 128
t-68.5 103t-103 68.5t-127 24.5q-69 0 -128 -24.5t-103 -68.5t-68.5 -103t-24.5 -128t24.5 -128t68.5 -103.5t103 -69t128 -24.5zM417 137q-94 0 -147 60.5t-53 158.5t53 155t147 57q38 0 74 -14t61 -37q5 -5 6 -10.5t-1 -10.5t-7 -8t-11 -2.5t-14 6.5q-27 21 -55 29.5
t-54 8.5q-74 0 -116 -46t-42 -129q0 -82 42 -131t116 -49q26 0 54.5 9t55.5 31q9 8 16.5 7t12 -7t4 -13.5t-6.5 -13.5q-27 -24 -63 -37.5t-72 -13.5z" />
    <glyph glyph-name="ordfeminine" unicode="&#xaa;" horiz-adv-x="316" 
d="M137 413q-45 0 -75 25t-30 63q0 44 41.5 64t105.5 20h67v-29h-66q-55 0 -83.5 -13.5t-28.5 -41.5q0 -24 17.5 -40.5t56.5 -16.5q29 0 51 12.5t34.5 36t12.5 56.5v57q0 38 -20 57t-58 19q-24 0 -46.5 -5t-42.5 -16q-9 -5 -15 -2.5t-8.5 8t-0.5 12.5t9 11q23 12 49.5 17.5
t53.5 5.5q38 0 63 -12t37.5 -36t12.5 -60v-174q0 -18 -17 -18q-8 0 -12.5 5t-4.5 13v40h-2q-17 -31 -41.5 -44.5t-59.5 -13.5z" />
    <glyph glyph-name="guillemotleft" unicode="&#xab;" horiz-adv-x="394" 
d="M171 94q-7 -2 -13.5 0t-9.5 8l-86 148q-4 8 -4 15t4 15l85 147q4 7 10 9.5t13 -0.5q8 -3 10.5 -11t-2.5 -17l-73 -143l73 -142q5 -10 3 -18t-10 -11zM329 94q-7 -2 -13.5 0t-9.5 8l-86 148q-4 8 -4 15t4 15l85 147q4 7 10 9.5t13 -0.5q8 -3 10.5 -11t-2.5 -17l-73 -143
l73 -142q5 -10 3 -18t-10 -11z" />
    <glyph glyph-name="logicalnot" unicode="&#xac;" horiz-adv-x="600" 
d="M524 151q-10 0 -15 5.5t-5 15.5v198h-433q-10 0 -15.5 5.5t-5.5 14.5t5.5 14t15.5 5h452q10 0 15.5 -5.5t5.5 -15.5v-216q0 -21 -20 -21z" />
    <glyph glyph-name="uni00AD" unicode="&#xad;" horiz-adv-x="416" 
d="M90 246q-8 0 -14 5.5t-6 13.5t6 13.5t14 5.5h236q8 0 14 -5.5t6 -13.5t-6 -13.5t-14 -5.5h-236z" />
    <glyph glyph-name="registered" unicode="&#xae;" horiz-adv-x="815" 
d="M408 -8q-76 0 -142 27.5t-115 76.5t-76.5 115t-27.5 142q0 77 27.5 142.5t76.5 114t114.5 76t142.5 27.5t142.5 -27.5t114 -76t76 -114t27.5 -142.5q0 -76 -27.5 -142t-76 -115t-114 -76.5t-142.5 -27.5zM408 28q68 0 127 24.5t103 69t68.5 103.5t24.5 128t-24.5 128
t-68.5 103t-103 68.5t-127 24.5q-69 0 -128 -24.5t-103 -68.5t-68.5 -103t-24.5 -128t24.5 -128t68.5 -103.5t103 -69t128 -24.5zM294 136q-21 0 -21 22v380q0 12 6.5 18.5t18.5 6.5h137q65 0 100 -31t35 -89q0 -57 -35.5 -87.5t-100.5 -30.5l3 9q29 0 49.5 -12t32.5 -41
l47 -115q5 -13 0 -21.5t-16 -8.5q-8 0 -13 4.5t-8 11.5l-52 124q-11 28 -33 37.5t-53 9.5h-88l11 9v-174q0 -22 -20 -22zM314 360h116q50 0 74.5 20t24.5 63q0 42 -24 62.5t-75 20.5h-116v-166z" />
    <glyph glyph-name="macron" unicode="&#xaf;" horiz-adv-x="480" 
d="M121 633q-21 0 -21 19q0 9 5.5 14t15.5 5h238q21 0 21 -19q0 -9 -5.5 -14t-15.5 -5h-238z" />
    <glyph glyph-name="degree" unicode="&#xb0;" horiz-adv-x="364" 
d="M182 429q-40 0 -72 19t-50.5 51t-18.5 72t18.5 72t50.5 51t72 19t71.5 -18.5t50 -50.5t18.5 -73q0 -40 -18.5 -72.5t-50 -51t-71.5 -18.5zM182 469q44 0 71 28.5t27 73.5t-27 73.5t-71 28.5q-43 0 -70.5 -28.5t-27.5 -73.5t27.5 -73.5t70.5 -28.5z" />
    <glyph glyph-name="plusminus" unicode="&#xb1;" horiz-adv-x="600" 
d="M300 111q-10 0 -15 5.5t-5 15.5v171h-209q-10 0 -15.5 5.5t-5.5 14.5t5.5 14t15.5 5h209v171q0 10 5 15.5t15 5.5t15 -5.5t5 -15.5v-171h209q10 0 15.5 -5t5.5 -14q0 -10 -5.5 -15t-15.5 -5h-209v-171q0 -10 -5 -15.5t-15 -5.5zM71 0q-10 0 -15.5 5.5t-5.5 14.5t5.5 14
t15.5 5h458q10 0 15.5 -5t5.5 -14q0 -10 -5.5 -15t-15.5 -5h-458z" />
    <glyph glyph-name="uni00B2" unicode="&#xb2;" horiz-adv-x="380" 
d="M79 282q-10 0 -15.5 4t-5.5 11q0 8 3 14t8 11l136 150q32 36 46 64t14 58q0 38 -21 58t-60 20q-25 0 -53 -10t-51 -29q-9 -7 -17 -6.5t-12.5 6.5t-4 14t8.5 15q26 23 61 35t70 12q38 0 65 -14t41.5 -39.5t14.5 -60.5q0 -34 -16 -67.5t-50 -70.5l-137 -148v10h207
q20 0 20 -18q0 -9 -5 -14t-15 -5h-232z" />
    <glyph glyph-name="uni00B3" unicode="&#xb3;" horiz-adv-x="380" 
d="M188 279q-39 0 -73.5 12t-59.5 34q-7 7 -8 15t3.5 14t12 7t16.5 -7q23 -19 51 -28.5t58 -9.5q37 0 64 19.5t27 62.5t-28.5 61.5t-75.5 18.5h-55q-10 0 -15 5t-5 14q0 8 5 13t15 5h45q47 0 75 21t28 62q0 35 -22.5 54.5t-61.5 19.5q-25 0 -53 -10t-51 -29q-9 -7 -17 -6.5
t-12.5 6.5t-4 14t8.5 15q26 23 61 35t70 12q56 0 90 -30t34 -78q0 -42 -23 -68t-53 -37v6q38 -8 62.5 -34.5t24.5 -70.5q0 -38 -18 -64.5t-48 -40t-67 -13.5z" />
    <glyph glyph-name="acute" unicode="&#xb4;" horiz-adv-x="338" 
d="M130 552q-4 -6 -10 -7.5t-12 1t-8 8.5t2 14l91 175q5 10 12.5 13t14.5 1.5t12 -6.5t6 -12.5t-4 -15.5z" />
    <glyph glyph-name="uni00B5" unicode="&#xb5;" horiz-adv-x="600" 
d="M133 -186q-10 0 -15.5 6t-5.5 16v632q0 11 5.5 16.5t15.5 5.5t15.5 -5.5t5.5 -16.5v-287q0 -76 31 -112t98 -36q73 0 118.5 47.5t45.5 126.5v261q0 11 5.5 16.5t15.5 5.5t15.5 -5.5t5.5 -16.5v-452q0 -22 -20 -22q-10 0 -15.5 6t-5.5 16v105h12q-19 -63 -67 -96t-110 -33
q-51 0 -90.5 18.5t-59.5 70.5h17l4 -245q0 -11 -5 -16.5t-16 -5.5z" />
    <glyph glyph-name="paragraph" unicode="&#xb6;" horiz-adv-x="556" 
d="M260 -186q-10 0 -15.5 6t-5.5 16v499q-56 0 -98 24t-65 66t-23 95t23 95t65 66t99 24h195q12 0 18.5 -6.5t6.5 -18.5v-844q0 -22 -21 -22q-10 0 -15.5 6t-5.5 16v831h-137v-831q0 -22 -21 -22z" />
    <glyph glyph-name="periodcentered" unicode="&#xb7;" horiz-adv-x="211" 
d="M106 227q-16 0 -27 11t-11 27q0 17 11 27.5t27 10.5q17 0 27 -10.5t10 -27.5q0 -16 -10 -27t-27 -11z" />
    <glyph glyph-name="cedilla" unicode="&#xb8;" horiz-adv-x="386" 
d="M180 -190q-17 0 -35.5 3t-32.5 10q-8 4 -10.5 11t0 13.5t8.5 9.5t15 -1q11 -5 25.5 -7.5t33.5 -2.5q27 0 44.5 11t17.5 32q0 15 -9.5 23.5t-29.5 8.5q-8 0 -16 -1t-19 -4q-10 -3 -15 -3.5t-10 2.5q-4 3 -4.5 8.5t0.5 14.5l13 82h38l-13 -75l-18 2q12 3 23.5 5t21.5 2
q32 0 55 -17t23 -48q0 -35 -29.5 -57t-76.5 -22z" />
    <glyph glyph-name="uni00B9" unicode="&#xb9;" horiz-adv-x="380" 
d="M122 282q-20 0 -20 19q0 8 5 13t15 5h73v351h20l-84 -57q-10 -6 -17.5 -4.5t-11.5 7.5t-2.5 14t10.5 14l79 53q6 5 12 7.5t13 2.5q6 0 10 -3t6.5 -7.5t2.5 -11.5v-366h63q20 0 20 -18q0 -9 -5 -14t-15 -5h-174z" />
    <glyph glyph-name="ordmasculine" unicode="&#xba;" horiz-adv-x="326" 
d="M163 413q-40 0 -70.5 18.5t-48.5 52.5t-18 79q0 46 18 79.5t48.5 52t70.5 18.5t70.5 -18.5t48.5 -52t18 -79.5q0 -45 -18 -79t-48.5 -52.5t-70.5 -18.5zM163 444q47 0 74 30.5t27 88.5t-27 88.5t-74 30.5q-46 0 -73.5 -30.5t-27.5 -88.5t27.5 -88.5t73.5 -30.5z" />
    <glyph glyph-name="guillemotright" unicode="&#xbb;" horiz-adv-x="394" 
d="M65 94q-8 3 -10 11t3 18l73 142l-73 143q-4 9 -1.5 17t9.5 11t13 0.5t10 -9.5l85 -147q5 -8 5 -15t-5 -15l-86 -148q-3 -6 -9.5 -8t-13.5 0zM223 94q-8 3 -10 11t3 18l73 142l-73 143q-4 9 -1.5 17t9.5 11t13 0.5t10 -9.5l85 -147q5 -8 5 -15t-5 -15l-86 -148
q-3 -6 -9.5 -8t-13.5 0z" />
    <glyph glyph-name="onequarter" unicode="&#xbc;" horiz-adv-x="877" 
d="M122 282q-20 0 -20 19q0 8 5 13t15 5h73v351h20l-84 -57q-10 -6 -17.5 -4.5t-11.5 7.5t-2.5 14t10.5 14l79 53q6 5 12 7.5t13 2.5q6 0 10 -3t6.5 -7.5t2.5 -11.5v-366h63q20 0 20 -18q0 -9 -5 -14t-15 -5h-174zM272 -6q-4 -7 -10 -9.5t-11 -1.5t-9 5t-4.5 10.5t3.5 13.5
l404 699q4 7 10 9.5t11 1.5t9 -5t4.5 -10t-3.5 -14zM759 -3q-9 0 -14 5t-5 15v77h-180q-10 0 -14.5 5.5t-4.5 12.5t3 13t7 13l186 272q5 7 10.5 11t12.5 4q8 0 13 -5t5 -15v-274h50q10 0 15 -4.5t5 -13.5t-5 -14t-15 -5h-50v-77q0 -10 -5 -15t-14 -5zM740 131v236h9
l-173 -251v15h164z" />
    <glyph glyph-name="onehalf" unicode="&#xbd;" horiz-adv-x="917" 
d="M122 282q-20 0 -20 19q0 8 5 13t15 5h73v351h20l-84 -57q-10 -6 -17.5 -4.5t-11.5 7.5t-2.5 14t10.5 14l79 53q6 5 12 7.5t13 2.5q6 0 10 -3t6.5 -7.5t2.5 -11.5v-366h63q20 0 20 -18q0 -9 -5 -14t-15 -5h-174zM272 -6q-4 -7 -10 -9.5t-11 -1.5t-9 5t-4.5 10.5t3.5 13.5
l404 699q4 7 10 9.5t11 1.5t9 -5t4.5 -10t-3.5 -14zM616 0q-10 0 -15.5 4t-5.5 11q0 8 3 14t8 11l136 150q32 36 46 64t14 58q0 38 -21 58t-60 20q-25 0 -53 -10t-51 -29q-9 -7 -17 -6.5t-12.5 6.5t-4 14t8.5 15q26 23 61 35t70 12q38 0 65 -14t41.5 -39.5t14.5 -60.5
q0 -34 -16 -67.5t-50 -70.5l-137 -148v10h207q20 0 20 -18q0 -9 -5 -14t-15 -5h-232z" />
    <glyph glyph-name="threequarters" unicode="&#xbe;" horiz-adv-x="877" 
d="M188 279q-39 0 -73.5 12t-59.5 34q-7 7 -8 15t3.5 14t12 7t16.5 -7q23 -19 51 -28.5t58 -9.5q37 0 64 19.5t27 62.5t-28.5 61.5t-75.5 18.5h-55q-10 0 -15 5t-5 14q0 8 5 13t15 5h45q47 0 75 21t28 62q0 35 -22.5 54.5t-61.5 19.5q-25 0 -53 -10t-51 -29q-9 -7 -17 -6.5
t-12.5 6.5t-4 14t8.5 15q26 23 61 35t70 12q56 0 90 -30t34 -78q0 -42 -23 -68t-53 -37v6q38 -8 62.5 -34.5t24.5 -70.5q0 -38 -18 -64.5t-48 -40t-67 -13.5zM272 -6q-4 -7 -10 -9.5t-11 -1.5t-9 5t-4.5 10.5t3.5 13.5l404 699q4 7 10 9.5t11 1.5t9 -5t4.5 -10t-3.5 -14z
M759 -3q-9 0 -14 5t-5 15v77h-180q-10 0 -14.5 5.5t-4.5 12.5t3 13t7 13l186 272q5 7 10.5 11t12.5 4q8 0 13 -5t5 -15v-274h50q10 0 15 -4.5t5 -13.5t-5 -14t-15 -5h-50v-77q0 -10 -5 -15t-14 -5zM740 131v236h9l-173 -251v15h164z" />
    <glyph glyph-name="questiondown" unicode="&#xbf;" horiz-adv-x="429" 
d="M208 -188q-53 0 -92.5 18t-61.5 50t-22 75q0 42 19 80.5t72 95.5q32 34 51 60.5t29 53.5t13 60q1 11 5.5 16.5t11.5 5.5t11 -5t4 -15q0 -36 -8 -66.5t-28 -62t-58 -71.5q-46 -48 -62 -81.5t-16 -68.5q0 -47 35 -75.5t96 -28.5q53 0 99 16.5t84 50.5q9 8 17 9.5t13.5 -2
t7.5 -10t-1 -14t-11 -15.5q-37 -33 -89.5 -54.5t-118.5 -21.5zM233 411q-16 0 -27 11t-11 27q0 17 11 27.5t27 10.5q17 0 27 -10.5t10 -27.5q0 -16 -10 -27t-27 -11z" />
    <glyph glyph-name="Agrave" unicode="&#xc0;" horiz-adv-x="716" 
d="M62 -6q-10 0 -15 4t-5 11.5t4 16.5l286 664q5 11 12 16t14 5q8 0 15 -5t11 -16l286 -664q4 -9 4 -16.5t-4 -11.5t-14 -4t-16.5 6t-10.5 15l-81 189l27 -9h-436l28 9l-81 -189q-4 -11 -11 -16t-13 -5zM357 648l-179 -420l-22 6h402l-20 -6l-179 420h-2zM338 768l-111 138
q-6 8 -6 15t4.5 12t11.5 7t14.5 -0.5t13.5 -11.5l99 -143q5 -7 3.5 -13t-6.5 -9t-11.5 -2t-11.5 7z" />
    <glyph glyph-name="Aacute" unicode="&#xc1;" horiz-adv-x="716" 
d="M62 -6q-10 0 -15 4t-5 11.5t4 16.5l286 664q5 11 12 16t14 5q8 0 15 -5t11 -16l286 -664q4 -9 4 -16.5t-4 -11.5t-14 -4t-16.5 6t-10.5 15l-81 189l27 -9h-436l28 9l-81 -189q-4 -11 -11 -16t-13 -5zM357 648l-179 -420l-22 6h402l-20 -6l-179 420h-2zM380 768
q-5 -6 -11.5 -7t-11.5 2t-6.5 9t3.5 13l99 143q6 9 13.5 11.5t14.5 0.5t11.5 -7t4.5 -12t-6 -15z" />
    <glyph glyph-name="Acircumflex" unicode="&#xc2;" horiz-adv-x="716" 
d="M62 -6q-10 0 -15 4t-5 11.5t4 16.5l286 664q5 11 12 16t14 5q8 0 15 -5t11 -16l286 -664q4 -9 4 -16.5t-4 -11.5t-14 -4t-16.5 6t-10.5 15l-81 189l27 -9h-436l28 9l-81 -189q-4 -11 -11 -16t-13 -5zM357 648l-179 -420l-22 6h402l-20 -6l-179 420h-2zM252 766
q-6 -7 -12.5 -8t-11.5 2t-6 9t4 13l101 142q7 10 15 13.5t17 3.5t17 -3.5t15 -13.5l101 -142q5 -7 4 -13t-6 -9t-11.5 -2t-12.5 8l-107 131z" />
    <glyph glyph-name="Atilde" unicode="&#xc3;" horiz-adv-x="716" 
d="M62 -6q-10 0 -15 4t-5 11.5t4 16.5l286 664q5 11 12 16t14 5q8 0 15 -5t11 -16l286 -664q4 -9 4 -16.5t-4 -11.5t-14 -4t-16.5 6t-10.5 15l-81 189l27 -9h-436l28 9l-81 -189q-4 -11 -11 -16t-13 -5zM357 648l-179 -420l-22 6h402l-20 -6l-179 420h-2zM180 789
q-7 0 -11.5 5t-3.5 15q8 50 36.5 78t68.5 28q27 0 51 -13t46.5 -29.5t43 -29.5t40.5 -13q27 0 45.5 20t24.5 55q2 8 6.5 11.5t10.5 3.5q7 0 12 -5t3 -15q-8 -49 -36 -77.5t-68 -28.5q-27 0 -51.5 13t-46.5 29.5t-43 29.5t-41 13q-27 0 -45.5 -20t-24.5 -55q-1 -7 -6 -11
t-11 -4z" />
    <glyph glyph-name="Adieresis" unicode="&#xc4;" horiz-adv-x="716" 
d="M62 -6q-10 0 -15 4t-5 11.5t4 16.5l286 664q5 11 12 16t14 5q8 0 15 -5t11 -16l286 -664q4 -9 4 -16.5t-4 -11.5t-14 -4t-16.5 6t-10.5 15l-81 189l27 -9h-436l28 9l-81 -189q-4 -11 -11 -16t-13 -5zM357 648l-179 -420l-22 6h402l-20 -6l-179 420h-2zM440 817
q-16 0 -25 8.5t-9 24.5t9 24.5t25 8.5t24.5 -8.5t8.5 -24.5t-8.5 -24.5t-24.5 -8.5zM279 817q-16 0 -25 8.5t-9 24.5t9 24.5t25 8.5t24.5 -8.5t8.5 -24.5t-8.5 -24.5t-24.5 -8.5z" />
    <glyph glyph-name="Aring" unicode="&#xc5;" horiz-adv-x="716" 
d="M62 -6q-10 0 -15 4t-5 11.5t4 16.5l286 664q5 11 12 16t14 5q8 0 15 -5t11 -16l286 -664q4 -9 4 -16.5t-4 -11.5t-14 -4t-16.5 6t-10.5 15l-81 189l27 -9h-436l28 9l-81 -189q-4 -11 -11 -16t-13 -5zM357 648l-179 -420l-22 6h402l-20 -6l-179 420h-2zM359 760
q-31 0 -56.5 15t-40.5 40t-15 55q0 31 15 55.5t40.5 39.5t56.5 15q32 0 57 -15t40 -39.5t15 -55.5q0 -30 -15 -55t-40 -40t-57 -15zM359 792q35 0 56.5 22.5t21.5 55.5t-21.5 55.5t-56.5 22.5q-34 0 -56 -22.5t-22 -55.5t22 -55.5t56 -22.5z" />
    <glyph glyph-name="AE" unicode="&#xc6;" horiz-adv-x="971" 
d="M31 -6q-9 0 -14.5 4t-5.5 10.5t4 13.5l398 667q5 8 11.5 12t15.5 4h464q11 0 17 -5t6 -14q0 -10 -6 -15t-17 -5h-445l7 24l68 -324l-17 11h367q11 0 17 -5t6 -14q0 -10 -6 -15t-17 -5h-359l13 10l69 -328l-21 19h318q11 0 17 -5t6 -14q0 -10 -6 -15t-17 -5h-312
q-20 0 -25 20l-39 187l20 -12h-395l19 12l-117 -197q-4 -8 -10 -12t-14 -4zM433 648l-251 -424l-9 10h357l-6 -9l-89 423h-2z" />
    <glyph glyph-name="Ccedilla" unicode="&#xc7;" horiz-adv-x="667" 
d="M381 -8q-99 0 -169 43.5t-107.5 124.5t-37.5 193q0 84 21 150.5t61.5 113t99 71.5t132.5 25q68 0 126.5 -21t99.5 -61q7 -7 9 -14.5t-0.5 -13.5t-7.5 -9.5t-12 -2.5t-15 8q-40 37 -89.5 55t-111.5 18q-86 0 -146 -37.5t-91 -109t-31 -172.5q0 -102 31 -173.5t91 -109
t146 -37.5q60 0 110 18.5t91 55.5q8 7 15 7.5t12 -3t7.5 -9.5t1.5 -13t-8 -13q-44 -42 -101 -63t-127 -21zM385 -190q-17 0 -35.5 3t-32.5 10q-8 4 -10.5 11t0 13.5t8.5 9.5t15 -1q11 -5 25.5 -7.5t33.5 -2.5q27 0 44.5 11t17.5 32q0 15 -9.5 23.5t-29.5 8.5q-8 0 -16 -1
t-19 -4q-10 -3 -15 -3.5t-10 2.5q-4 3 -4.5 8.5t0.5 14.5l13 82h38l-13 -75l-18 2q12 3 23.5 5t21.5 2q32 0 55 -17t23 -48q0 -35 -29.5 -57t-76.5 -22z" />
    <glyph glyph-name="Egrave" unicode="&#xc8;" horiz-adv-x="570" 
d="M121 0q-12 0 -18.5 6.5t-6.5 18.5v655q0 12 6.5 18.5t18.5 6.5h384q10 0 15.5 -5t5.5 -14q0 -10 -5.5 -15t-15.5 -5h-367v-289h347q10 0 15.5 -5t5.5 -14q0 -10 -5.5 -15t-15.5 -5h-347v-299h367q10 0 15.5 -5t5.5 -14q0 -10 -5.5 -15t-15.5 -5h-384zM299 768l-111 138
q-6 8 -6 15t4.5 12t11.5 7t14.5 -0.5t13.5 -11.5l99 -143q5 -7 3.5 -13t-6.5 -9t-11.5 -2t-11.5 7z" />
    <glyph glyph-name="Eacute" unicode="&#xc9;" horiz-adv-x="570" 
d="M121 0q-12 0 -18.5 6.5t-6.5 18.5v655q0 12 6.5 18.5t18.5 6.5h384q10 0 15.5 -5t5.5 -14q0 -10 -5.5 -15t-15.5 -5h-367v-289h347q10 0 15.5 -5t5.5 -14q0 -10 -5.5 -15t-15.5 -5h-347v-299h367q10 0 15.5 -5t5.5 -14q0 -10 -5.5 -15t-15.5 -5h-384zM341 768
q-5 -6 -11.5 -7t-11.5 2t-6.5 9t3.5 13l99 143q6 9 13.5 11.5t14.5 0.5t11.5 -7t4.5 -12t-6 -15z" />
    <glyph glyph-name="Ecircumflex" unicode="&#xca;" horiz-adv-x="570" 
d="M121 0q-12 0 -18.5 6.5t-6.5 18.5v655q0 12 6.5 18.5t18.5 6.5h384q10 0 15.5 -5t5.5 -14q0 -10 -5.5 -15t-15.5 -5h-367v-289h347q10 0 15.5 -5t5.5 -14q0 -10 -5.5 -15t-15.5 -5h-347v-299h367q10 0 15.5 -5t5.5 -14q0 -10 -5.5 -15t-15.5 -5h-384zM213 766
q-6 -7 -12.5 -8t-11.5 2t-6 9t4 13l101 142q7 10 15 13.5t17 3.5t17 -3.5t15 -13.5l101 -142q5 -7 4 -13t-6 -9t-11.5 -2t-12.5 8l-107 131z" />
    <glyph glyph-name="Edieresis" unicode="&#xcb;" horiz-adv-x="570" 
d="M121 0q-12 0 -18.5 6.5t-6.5 18.5v655q0 12 6.5 18.5t18.5 6.5h384q10 0 15.5 -5t5.5 -14q0 -10 -5.5 -15t-15.5 -5h-367v-289h347q10 0 15.5 -5t5.5 -14q0 -10 -5.5 -15t-15.5 -5h-347v-299h367q10 0 15.5 -5t5.5 -14q0 -10 -5.5 -15t-15.5 -5h-384zM401 817
q-16 0 -25 8.5t-9 24.5t9 24.5t25 8.5t24.5 -8.5t8.5 -24.5t-8.5 -24.5t-24.5 -8.5zM240 817q-16 0 -25 8.5t-9 24.5t9 24.5t25 8.5t24.5 -8.5t8.5 -24.5t-8.5 -24.5t-24.5 -8.5z" />
    <glyph glyph-name="Igrave" unicode="&#xcc;" horiz-adv-x="234" 
d="M117 -6q-10 0 -15.5 6t-5.5 16v673q0 11 5.5 16.5t15.5 5.5t15.5 -5.5t5.5 -16.5v-673q0 -10 -5 -16t-16 -6zM96 768l-111 138q-6 8 -6 15t4.5 12t11.5 7t14.5 -0.5t13.5 -11.5l99 -143q5 -7 3.5 -13t-6.5 -9t-11.5 -2t-11.5 7z" />
    <glyph glyph-name="Iacute" unicode="&#xcd;" horiz-adv-x="234" 
d="M117 -6q-10 0 -15.5 6t-5.5 16v673q0 11 5.5 16.5t15.5 5.5t15.5 -5.5t5.5 -16.5v-673q0 -10 -5 -16t-16 -6zM138 768q-5 -6 -11.5 -7t-11.5 2t-6.5 9t3.5 13l99 143q6 9 13.5 11.5t14.5 0.5t11.5 -7t4.5 -12t-6 -15z" />
    <glyph glyph-name="Icircumflex" unicode="&#xce;" horiz-adv-x="234" 
d="M117 -6q-10 0 -15.5 6t-5.5 16v673q0 11 5.5 16.5t15.5 5.5t15.5 -5.5t5.5 -16.5v-673q0 -10 -5 -16t-16 -6zM10 766q-6 -7 -12.5 -8t-11.5 2t-6 9t4 13l101 142q7 10 15 13.5t17 3.5t17 -3.5t15 -13.5l101 -142q5 -7 4 -13t-6 -9t-11.5 -2t-12.5 8l-107 131z" />
    <glyph glyph-name="Idieresis" unicode="&#xcf;" horiz-adv-x="234" 
d="M117 -6q-10 0 -15.5 6t-5.5 16v673q0 11 5.5 16.5t15.5 5.5t15.5 -5.5t5.5 -16.5v-673q0 -10 -5 -16t-16 -6zM198 817q-16 0 -25 8.5t-9 24.5t9 24.5t25 8.5t24.5 -8.5t8.5 -24.5t-8.5 -24.5t-24.5 -8.5zM37 817q-16 0 -25 8.5t-9 24.5t9 24.5t25 8.5t24.5 -8.5
t8.5 -24.5t-8.5 -24.5t-24.5 -8.5z" />
    <glyph glyph-name="Eth" unicode="&#xd0;" horiz-adv-x="725" 
d="M121 0q-12 0 -18.5 6.5t-6.5 18.5v655q0 12 6.5 18.5t18.5 6.5h192q166 0 255.5 -89.5t89.5 -262.5q0 -86 -23 -152t-67 -110.5t-108 -67.5t-147 -23h-192zM138 39h171q76 0 133 20t95 59t57 98t19 137q0 156 -76 234.5t-228 78.5h-171v-627zM19 340q-10 0 -15 5t-5 14
q0 8 5 13t15 5h307q10 0 15 -4.5t5 -13.5t-5 -14t-15 -5h-307z" />
    <glyph glyph-name="Ntilde" unicode="&#xd1;" horiz-adv-x="732" 
d="M116 -6q-9 0 -14.5 6t-5.5 16v672q0 11 5 17t13 6q9 0 13.5 -3t9.5 -11l482 -655h-22v647q0 11 5.5 16.5t14.5 5.5t14 -5.5t5 -16.5v-672q0 -11 -4.5 -17t-12.5 -6q-7 0 -12.5 3.5t-10.5 10.5l-482 655h21v-647q0 -10 -5 -16t-14 -6zM187 789q-7 0 -11.5 5t-3.5 15
q8 50 36.5 78t68.5 28q27 0 51 -13t46.5 -29.5t43 -29.5t40.5 -13q27 0 45.5 20t24.5 55q2 8 6.5 11.5t10.5 3.5q7 0 12 -5t3 -15q-8 -49 -36 -77.5t-68 -28.5q-27 0 -51.5 13t-46.5 29.5t-43 29.5t-41 13q-27 0 -45.5 -20t-24.5 -55q-1 -7 -6 -11t-11 -4z" />
    <glyph glyph-name="Ograve" unicode="&#xd2;" horiz-adv-x="751" 
d="M375 -8q-95 0 -164 44t-106.5 125t-37.5 192q0 84 21 150.5t61 113t97 71.5t129 25q96 0 165.5 -43.5t106.5 -124t37 -191.5q0 -84 -21.5 -151t-61.5 -114t-97 -72t-129 -25zM375 33q84 0 143 37.5t90 109t31 173.5q0 152 -68.5 235.5t-195.5 83.5q-83 0 -142 -37.5
t-90 -109t-31 -172.5q0 -151 69 -235.5t194 -84.5zM354 768l-111 138q-6 8 -6 15t4.5 12t11.5 7t14.5 -0.5t13.5 -11.5l99 -143q5 -7 3.5 -13t-6.5 -9t-11.5 -2t-11.5 7z" />
    <glyph glyph-name="Oacute" unicode="&#xd3;" horiz-adv-x="751" 
d="M375 -8q-95 0 -164 44t-106.5 125t-37.5 192q0 84 21 150.5t61 113t97 71.5t129 25q96 0 165.5 -43.5t106.5 -124t37 -191.5q0 -84 -21.5 -151t-61.5 -114t-97 -72t-129 -25zM375 33q84 0 143 37.5t90 109t31 173.5q0 152 -68.5 235.5t-195.5 83.5q-83 0 -142 -37.5
t-90 -109t-31 -172.5q0 -151 69 -235.5t194 -84.5zM396 768q-5 -6 -11.5 -7t-11.5 2t-6.5 9t3.5 13l99 143q6 9 13.5 11.5t14.5 0.5t11.5 -7t4.5 -12t-6 -15z" />
    <glyph glyph-name="Ocircumflex" unicode="&#xd4;" horiz-adv-x="751" 
d="M375 -8q-95 0 -164 44t-106.5 125t-37.5 192q0 84 21 150.5t61 113t97 71.5t129 25q96 0 165.5 -43.5t106.5 -124t37 -191.5q0 -84 -21.5 -151t-61.5 -114t-97 -72t-129 -25zM375 33q84 0 143 37.5t90 109t31 173.5q0 152 -68.5 235.5t-195.5 83.5q-83 0 -142 -37.5
t-90 -109t-31 -172.5q0 -151 69 -235.5t194 -84.5zM268 766q-6 -7 -12.5 -8t-11.5 2t-6 9t4 13l101 142q7 10 15 13.5t17 3.5t17 -3.5t15 -13.5l101 -142q5 -7 4 -13t-6 -9t-11.5 -2t-12.5 8l-107 131z" />
    <glyph glyph-name="Otilde" unicode="&#xd5;" horiz-adv-x="751" 
d="M375 -8q-95 0 -164 44t-106.5 125t-37.5 192q0 84 21 150.5t61 113t97 71.5t129 25q96 0 165.5 -43.5t106.5 -124t37 -191.5q0 -84 -21.5 -151t-61.5 -114t-97 -72t-129 -25zM375 33q84 0 143 37.5t90 109t31 173.5q0 152 -68.5 235.5t-195.5 83.5q-83 0 -142 -37.5
t-90 -109t-31 -172.5q0 -151 69 -235.5t194 -84.5zM196 789q-7 0 -11.5 5t-3.5 15q8 50 36.5 78t68.5 28q27 0 51 -13t46.5 -29.5t43 -29.5t40.5 -13q27 0 45.5 20t24.5 55q2 8 6.5 11.5t10.5 3.5q7 0 12 -5t3 -15q-8 -49 -36 -77.5t-68 -28.5q-27 0 -51.5 13t-46.5 29.5
t-43 29.5t-41 13q-27 0 -45.5 -20t-24.5 -55q-1 -7 -6 -11t-11 -4z" />
    <glyph glyph-name="Odieresis" unicode="&#xd6;" horiz-adv-x="751" 
d="M375 -8q-95 0 -164 44t-106.5 125t-37.5 192q0 84 21 150.5t61 113t97 71.5t129 25q96 0 165.5 -43.5t106.5 -124t37 -191.5q0 -84 -21.5 -151t-61.5 -114t-97 -72t-129 -25zM375 33q84 0 143 37.5t90 109t31 173.5q0 152 -68.5 235.5t-195.5 83.5q-83 0 -142 -37.5
t-90 -109t-31 -172.5q0 -151 69 -235.5t194 -84.5zM456 817q-16 0 -25 8.5t-9 24.5t9 24.5t25 8.5t24.5 -8.5t8.5 -24.5t-8.5 -24.5t-24.5 -8.5zM295 817q-16 0 -25 8.5t-9 24.5t9 24.5t25 8.5t24.5 -8.5t8.5 -24.5t-8.5 -24.5t-24.5 -8.5z" />
    <glyph glyph-name="multiply" unicode="&#xd7;" horiz-adv-x="600" 
d="M106 62q-7 -7 -15 -6.5t-13.5 5.5t-6 13t6.5 15l194 195l-197 197q-6 6 -7 12.5t2 12t8.5 8.5t12 2t12.5 -7l197 -197l196 197q8 8 15.5 7t13.5 -6.5t6.5 -13.5t-7.5 -16l-196 -196l194 -195q6 -6 7 -12.5t-2 -11.5t-8.5 -8t-12 -2t-12.5 7l-194 194z" />
    <glyph glyph-name="Oslash" unicode="&#xd8;" horiz-adv-x="751" 
d="M375 -8q-95 0 -164 44t-106.5 125t-37.5 192q0 84 21 150.5t61 113t97 71.5t129 25q96 0 165.5 -43.5t106.5 -124t37 -191.5q0 -84 -21.5 -151t-61.5 -114t-97 -72t-129 -25zM375 33q84 0 143 37.5t90 109t31 173.5q0 152 -68.5 235.5t-195.5 83.5q-83 0 -142 -37.5
t-90 -109t-31 -172.5q0 -151 69 -235.5t194 -84.5zM178 -23q-4 -7 -9.5 -9t-11.5 -0.5t-10 5.5t-4.5 10.5t3.5 13.5l38 65l13 22l324 556l13 22l39 66q4 7 9.5 9t11.5 0.5t10 -5.5t4.5 -10.5t-3.5 -13.5l-38 -65l-13 -22l-324 -556l-13 -22z" />
    <glyph glyph-name="Ugrave" unicode="&#xd9;" horiz-adv-x="720" 
d="M360 -8q-66 0 -116.5 18t-84 53.5t-51 87.5t-17.5 120v418q0 11 5.5 16.5t15.5 5.5t15.5 -5.5t5.5 -16.5v-412q0 -123 57.5 -183.5t169.5 -60.5q113 0 170 60.5t57 183.5v412q0 11 5.5 16.5t15.5 5.5t15.5 -5.5t5.5 -16.5v-418q0 -90 -30.5 -152.5t-90.5 -94.5t-148 -32z
M339 768l-111 138q-6 8 -6 15t4.5 12t11.5 7t14.5 -0.5t13.5 -11.5l99 -143q5 -7 3.5 -13t-6.5 -9t-11.5 -2t-11.5 7z" />
    <glyph glyph-name="Uacute" unicode="&#xda;" horiz-adv-x="720" 
d="M360 -8q-66 0 -116.5 18t-84 53.5t-51 87.5t-17.5 120v418q0 11 5.5 16.5t15.5 5.5t15.5 -5.5t5.5 -16.5v-412q0 -123 57.5 -183.5t169.5 -60.5q113 0 170 60.5t57 183.5v412q0 11 5.5 16.5t15.5 5.5t15.5 -5.5t5.5 -16.5v-418q0 -90 -30.5 -152.5t-90.5 -94.5t-148 -32z
M381 768q-5 -6 -11.5 -7t-11.5 2t-6.5 9t3.5 13l99 143q6 9 13.5 11.5t14.5 0.5t11.5 -7t4.5 -12t-6 -15z" />
    <glyph glyph-name="Ucircumflex" unicode="&#xdb;" horiz-adv-x="720" 
d="M360 -8q-66 0 -116.5 18t-84 53.5t-51 87.5t-17.5 120v418q0 11 5.5 16.5t15.5 5.5t15.5 -5.5t5.5 -16.5v-412q0 -123 57.5 -183.5t169.5 -60.5q113 0 170 60.5t57 183.5v412q0 11 5.5 16.5t15.5 5.5t15.5 -5.5t5.5 -16.5v-418q0 -90 -30.5 -152.5t-90.5 -94.5t-148 -32z
M253 766q-6 -7 -12.5 -8t-11.5 2t-6 9t4 13l101 142q7 10 15 13.5t17 3.5t17 -3.5t15 -13.5l101 -142q5 -7 4 -13t-6 -9t-11.5 -2t-12.5 8l-107 131z" />
    <glyph glyph-name="Udieresis" unicode="&#xdc;" horiz-adv-x="720" 
d="M360 -8q-66 0 -116.5 18t-84 53.5t-51 87.5t-17.5 120v418q0 11 5.5 16.5t15.5 5.5t15.5 -5.5t5.5 -16.5v-412q0 -123 57.5 -183.5t169.5 -60.5q113 0 170 60.5t57 183.5v412q0 11 5.5 16.5t15.5 5.5t15.5 -5.5t5.5 -16.5v-418q0 -90 -30.5 -152.5t-90.5 -94.5t-148 -32z
M441 817q-16 0 -25 8.5t-9 24.5t9 24.5t25 8.5t24.5 -8.5t8.5 -24.5t-8.5 -24.5t-24.5 -8.5zM280 817q-16 0 -25 8.5t-9 24.5t9 24.5t25 8.5t24.5 -8.5t8.5 -24.5t-8.5 -24.5t-24.5 -8.5z" />
    <glyph glyph-name="Yacute" unicode="&#xdd;" horiz-adv-x="577" 
d="M288 -6q-10 0 -15.5 6t-5.5 17v350l11 -39l-260 351q-6 9 -6 16.5t5 11.5t12 4q8 0 14 -3t11 -11l243 -329h-15l243 329q5 8 10.5 11t13.5 3q7 0 11.5 -4t5 -11.5t-6.5 -16.5l-260 -351l10 39v-350q0 -23 -21 -23zM309 768q-5 -6 -11.5 -7t-11.5 2t-6.5 9t3.5 13l99 143
q6 9 13.5 11.5t14.5 0.5t11.5 -7t4.5 -12t-6 -15z" />
    <glyph glyph-name="Thorn" unicode="&#xde;" horiz-adv-x="616" 
d="M117 -6q-10 0 -15.5 6t-5.5 16v673q0 11 5.5 16.5t15.5 5.5t15.5 -5.5t5.5 -16.5v-120h213q111 0 170 -53t59 -151t-59 -151t-170 -53h-213v-145q0 -10 -5 -16t-16 -6zM138 200h212q93 0 139.5 42t46.5 123t-46.5 123t-139.5 42h-212v-330z" />
    <glyph glyph-name="germandbls" unicode="&#xdf;" horiz-adv-x="581" 
d="M374 -8q-43 0 -86.5 13.5t-75.5 39.5q-7 5 -8.5 11.5t0 12.5t6.5 9.5t11.5 3.5t14.5 -5q33 -24 69 -35t69 -11q59 0 93 26t34 69q0 35 -26.5 58t-89.5 43q-82 26 -114 56.5t-32 76.5q0 21 8 40t26 40t49 46q36 29 50.5 53t14.5 52q0 39 -27 61t-75 22q-76 0 -117 -45.5
t-41 -128.5v-484q0 -10 -5.5 -16t-15.5 -6t-15.5 6t-5.5 16v483q0 101 52.5 157.5t145.5 56.5q46 0 78.5 -14.5t50.5 -41.5t18 -63q0 -40 -19 -70t-64 -68q-25 -20 -39 -35.5t-19.5 -29t-5.5 -29.5q0 -31 25.5 -53t89.5 -42q80 -25 113.5 -57.5t33.5 -85.5
q0 -39 -21.5 -68.5t-60 -46.5t-89.5 -17z" />
    <glyph glyph-name="agrave" unicode="&#xe0;" horiz-adv-x="514" 
d="M231 -8q-47 0 -85 19t-60 51.5t-22 72.5q0 54 26.5 84.5t91 43t177.5 12.5h41v-37h-39q-99 0 -153.5 -8.5t-76 -30t-21.5 -60.5q0 -48 33.5 -78.5t90.5 -30.5q46 0 80.5 22.5t54.5 61t20 87.5v114q0 72 -28 105t-90 33q-40 0 -76.5 -11t-76.5 -34q-9 -5 -15.5 -4
t-10.5 5.5t-5.5 11t1 12.5t9.5 10q41 25 85 37t87 12q55 0 91 -19t53.5 -58t17.5 -100v-299q0 -10 -5 -16t-15 -6t-15.5 6t-5.5 16v105h11q-10 -40 -34 -69t-58.5 -44.5t-77.5 -15.5zM245 552l-104 171q-5 8 -4 15.5t6 12.5t12 6.5t14.5 -1.5t12.5 -13l91 -175q4 -8 2 -14
t-8 -8.5t-12 -1t-10 7.5z" />
    <glyph glyph-name="aacute" unicode="&#xe1;" horiz-adv-x="514" 
d="M231 -8q-47 0 -85 19t-60 51.5t-22 72.5q0 54 26.5 84.5t91 43t177.5 12.5h41v-37h-39q-99 0 -153.5 -8.5t-76 -30t-21.5 -60.5q0 -48 33.5 -78.5t90.5 -30.5q46 0 80.5 22.5t54.5 61t20 87.5v114q0 72 -28 105t-90 33q-40 0 -76.5 -11t-76.5 -34q-9 -5 -15.5 -4
t-10.5 5.5t-5.5 11t1 12.5t9.5 10q41 25 85 37t87 12q55 0 91 -19t53.5 -58t17.5 -100v-299q0 -10 -5 -16t-15 -6t-15.5 6t-5.5 16v105h11q-10 -40 -34 -69t-58.5 -44.5t-77.5 -15.5zM285 552q-4 -6 -10 -7.5t-12 1t-8 8.5t2 14l91 175q5 10 12.5 13t14.5 1.5t12 -6.5
t6 -12.5t-4 -15.5z" />
    <glyph glyph-name="acircumflex" unicode="&#xe2;" horiz-adv-x="514" 
d="M231 -8q-47 0 -85 19t-60 51.5t-22 72.5q0 54 26.5 84.5t91 43t177.5 12.5h41v-37h-39q-99 0 -153.5 -8.5t-76 -30t-21.5 -60.5q0 -48 33.5 -78.5t90.5 -30.5q46 0 80.5 22.5t54.5 61t20 87.5v114q0 72 -28 105t-90 33q-40 0 -76.5 -11t-76.5 -34q-9 -5 -15.5 -4
t-10.5 5.5t-5.5 11t1 12.5t9.5 10q41 25 85 37t87 12q55 0 91 -19t53.5 -58t17.5 -100v-299q0 -10 -5 -16t-15 -6t-15.5 6t-5.5 16v105h11q-10 -40 -34 -69t-58.5 -44.5t-77.5 -15.5zM388 568q4 -8 2 -14t-7.5 -8.5t-11.5 -1t-10 7.5l-96 158l-96 -158q-4 -6 -10 -7.5
t-11.5 1t-7.5 8.5t2 14l93 170q6 11 13.5 15.5t16.5 4.5t16.5 -4.5t13.5 -15.5z" />
    <glyph glyph-name="atilde" unicode="&#xe3;" horiz-adv-x="514" 
d="M231 -8q-47 0 -85 19t-60 51.5t-22 72.5q0 54 26.5 84.5t91 43t177.5 12.5h41v-37h-39q-99 0 -153.5 -8.5t-76 -30t-21.5 -60.5q0 -48 33.5 -78.5t90.5 -30.5q46 0 80.5 22.5t54.5 61t20 87.5v114q0 72 -28 105t-90 33q-40 0 -76.5 -11t-76.5 -34q-9 -5 -15.5 -4
t-10.5 5.5t-5.5 11t1 12.5t9.5 10q41 25 85 37t87 12q55 0 91 -19t53.5 -58t17.5 -100v-299q0 -10 -5 -16t-15 -6t-15.5 6t-5.5 16v105h11q-10 -40 -34 -69t-58.5 -44.5t-77.5 -15.5zM114 592q-7 0 -11.5 5t-3.5 15q4 26 12 45.5t20 33t27.5 20.5t34.5 7q24 0 42.5 -13
t35 -29.5t32.5 -29.5t34 -13q24 0 39.5 19.5t22.5 55.5q2 8 6.5 11.5t10.5 3.5q7 0 12 -5t3 -15q-5 -34 -18 -57.5t-32 -36t-44 -12.5q-24 0 -42.5 13t-35 29.5t-32.5 29.5t-34 13q-24 0 -39.5 -19.5t-22.5 -55.5q-1 -7 -6 -11t-11 -4z" />
    <glyph glyph-name="adieresis" unicode="&#xe4;" horiz-adv-x="514" 
d="M231 -8q-47 0 -85 19t-60 51.5t-22 72.5q0 54 26.5 84.5t91 43t177.5 12.5h41v-37h-39q-99 0 -153.5 -8.5t-76 -30t-21.5 -60.5q0 -48 33.5 -78.5t90.5 -30.5q46 0 80.5 22.5t54.5 61t20 87.5v114q0 72 -28 105t-90 33q-40 0 -76.5 -11t-76.5 -34q-9 -5 -15.5 -4
t-10.5 5.5t-5.5 11t1 12.5t9.5 10q41 25 85 37t87 12q55 0 91 -19t53.5 -58t17.5 -100v-299q0 -10 -5 -16t-15 -6t-15.5 6t-5.5 16v105h11q-10 -40 -34 -69t-58.5 -44.5t-77.5 -15.5zM346 617q-16 0 -25 8.5t-9 24.5t9 24.5t25 8.5t24.5 -8.5t8.5 -24.5t-8.5 -24.5
t-24.5 -8.5zM185 617q-16 0 -25 8.5t-9 24.5t9 24.5t25 8.5t24.5 -8.5t8.5 -24.5t-8.5 -24.5t-24.5 -8.5z" />
    <glyph glyph-name="aring" unicode="&#xe5;" horiz-adv-x="514" 
d="M231 -8q-47 0 -85 19t-60 51.5t-22 72.5q0 54 26.5 84.5t91 43t177.5 12.5h41v-37h-39q-99 0 -153.5 -8.5t-76 -30t-21.5 -60.5q0 -48 33.5 -78.5t90.5 -30.5q46 0 80.5 22.5t54.5 61t20 87.5v114q0 72 -28 105t-90 33q-40 0 -76.5 -11t-76.5 -34q-9 -5 -15.5 -4
t-10.5 5.5t-5.5 11t1 12.5t9.5 10q41 25 85 37t87 12q55 0 91 -19t53.5 -58t17.5 -100v-299q0 -10 -5 -16t-15 -6t-15.5 6t-5.5 16v105h11q-10 -40 -34 -69t-58.5 -44.5t-77.5 -15.5zM265 547q-31 0 -56.5 15t-40.5 40t-15 55q0 31 15 55.5t40.5 39.5t56.5 15q32 0 57 -15
t40 -39.5t15 -55.5q0 -30 -15 -55t-40 -40t-57 -15zM265 579q35 0 56.5 22.5t21.5 55.5t-21.5 55.5t-56.5 22.5q-34 0 -56 -22.5t-22 -55.5t22 -55.5t56 -22.5z" />
    <glyph glyph-name="ae" unicode="&#xe6;" horiz-adv-x="857" 
d="M233 -8q-48 0 -86 19t-60.5 51.5t-22.5 72.5q0 54 27.5 84.5t92 42.5t175.5 12h45v-37h-43q-99 0 -153.5 -8t-76 -29.5t-21.5 -60.5q0 -48 34 -78.5t92 -30.5q48 0 83.5 23t55 63.5t19.5 91.5v104q0 74 -29.5 107.5t-91.5 33.5q-41 0 -78 -11t-77 -34q-9 -5 -15.5 -4
t-10.5 5.5t-5.5 11t1 12.5t9.5 10q41 25 85.5 37t88.5 12q76 0 115.5 -35t49.5 -103h-20q25 67 76.5 102.5t123.5 36.5q45 0 80.5 -15.5t61 -45.5t38.5 -73t13 -97v-5q0 -9 -5.5 -14.5t-16.5 -5.5h-359v37h358l-16 -11q0 59 -18 101.5t-53 66t-87 23.5q-53 0 -92.5 -25.5
t-61 -71t-21.5 -107.5v-7q0 -100 47.5 -156t135.5 -56q35 0 71.5 11t70.5 37q7 6 14.5 6.5t13 -3t8 -9t0.5 -12.5t-10 -13q-31 -25 -74 -40.5t-90 -15.5q-87 0 -143.5 43t-76.5 125h18q-12 -77 -62 -122.5t-127 -45.5z" />
    <glyph glyph-name="ccedilla" unicode="&#xe7;" horiz-adv-x="455" 
d="M274 -8q-69 0 -118.5 32t-76 89t-26.5 133q0 57 15 102.5t43.5 77.5t69.5 49t93 17q38 0 77.5 -13.5t70.5 -44.5q5 -5 5.5 -11t-2 -11.5t-7.5 -8.5t-12 -2.5t-14 7.5q-29 26 -59.5 35.5t-59.5 9.5q-43 0 -76 -14t-55.5 -40.5t-34 -65t-11.5 -88.5q0 -100 46 -157t131 -57
q29 0 59.5 9.5t59.5 35.5q7 7 14 7.5t12 -2.5t7.5 -8.5t2 -11.5t-5.5 -11q-31 -31 -70.5 -44.5t-77.5 -13.5zM278 -190q-17 0 -35.5 3t-32.5 10q-8 4 -10.5 11t0 13.5t8.5 9.5t15 -1q11 -5 25.5 -7.5t33.5 -2.5q27 0 44.5 11t17.5 32q0 15 -9.5 23.5t-29.5 8.5q-8 0 -16 -1
t-19 -4q-10 -3 -15 -3.5t-10 2.5q-4 3 -4.5 8.5t0.5 14.5l13 82h38l-13 -75l-18 2q12 3 23.5 5t21.5 2q32 0 55 -17t23 -48q0 -35 -29.5 -57t-76.5 -22z" />
    <glyph glyph-name="egrave" unicode="&#xe8;" horiz-adv-x="523" 
d="M286 -8q-72 0 -124 30t-80.5 85.5t-28.5 132.5q0 76 28.5 132.5t79 88t116.5 31.5q47 0 83.5 -16t62 -46t39 -73t13.5 -97q0 -13 -5.5 -19.5t-16.5 -6.5h-373v37h373l-17 -12q0 61 -18 104.5t-53.5 67t-88.5 23.5q-58 0 -98.5 -27.5t-61 -74.5t-20.5 -107v-5
q0 -100 49.5 -154.5t138.5 -54.5q40 0 75 10.5t69 37.5q7 6 14.5 6.5t13 -3t8 -9t0.5 -12.5t-10 -13q-31 -26 -76 -41t-92 -15zM257 552l-104 171q-5 8 -4 15.5t6 12.5t12 6.5t14.5 -1.5t12.5 -13l91 -175q4 -8 2 -14t-8 -8.5t-12 -1t-10 7.5z" />
    <glyph glyph-name="eacute" unicode="&#xe9;" horiz-adv-x="523" 
d="M286 -8q-72 0 -124 30t-80.5 85.5t-28.5 132.5q0 76 28.5 132.5t79 88t116.5 31.5q47 0 83.5 -16t62 -46t39 -73t13.5 -97q0 -13 -5.5 -19.5t-16.5 -6.5h-373v37h373l-17 -12q0 61 -18 104.5t-53.5 67t-88.5 23.5q-58 0 -98.5 -27.5t-61 -74.5t-20.5 -107v-5
q0 -100 49.5 -154.5t138.5 -54.5q40 0 75 10.5t69 37.5q7 6 14.5 6.5t13 -3t8 -9t0.5 -12.5t-10 -13q-31 -26 -76 -41t-92 -15zM297 552q-4 -6 -10 -7.5t-12 1t-8 8.5t2 14l91 175q5 10 12.5 13t14.5 1.5t12 -6.5t6 -12.5t-4 -15.5z" />
    <glyph glyph-name="ecircumflex" unicode="&#xea;" horiz-adv-x="523" 
d="M286 -8q-72 0 -124 30t-80.5 85.5t-28.5 132.5q0 76 28.5 132.5t79 88t116.5 31.5q47 0 83.5 -16t62 -46t39 -73t13.5 -97q0 -13 -5.5 -19.5t-16.5 -6.5h-373v37h373l-17 -12q0 61 -18 104.5t-53.5 67t-88.5 23.5q-58 0 -98.5 -27.5t-61 -74.5t-20.5 -107v-5
q0 -100 49.5 -154.5t138.5 -54.5q40 0 75 10.5t69 37.5q7 6 14.5 6.5t13 -3t8 -9t0.5 -12.5t-10 -13q-31 -26 -76 -41t-92 -15zM400 568q4 -8 2 -14t-7.5 -8.5t-11.5 -1t-10 7.5l-96 158l-96 -158q-4 -6 -10 -7.5t-11.5 1t-7.5 8.5t2 14l93 170q6 11 13.5 15.5t16.5 4.5
t16.5 -4.5t13.5 -15.5z" />
    <glyph glyph-name="edieresis" unicode="&#xeb;" horiz-adv-x="523" 
d="M286 -8q-72 0 -124 30t-80.5 85.5t-28.5 132.5q0 76 28.5 132.5t79 88t116.5 31.5q47 0 83.5 -16t62 -46t39 -73t13.5 -97q0 -13 -5.5 -19.5t-16.5 -6.5h-373v37h373l-17 -12q0 61 -18 104.5t-53.5 67t-88.5 23.5q-58 0 -98.5 -27.5t-61 -74.5t-20.5 -107v-5
q0 -100 49.5 -154.5t138.5 -54.5q40 0 75 10.5t69 37.5q7 6 14.5 6.5t13 -3t8 -9t0.5 -12.5t-10 -13q-31 -26 -76 -41t-92 -15zM358 617q-16 0 -25 8.5t-9 24.5t9 24.5t25 8.5t24.5 -8.5t8.5 -24.5t-8.5 -24.5t-24.5 -8.5zM197 617q-16 0 -25 8.5t-9 24.5t9 24.5t25 8.5
t24.5 -8.5t8.5 -24.5t-8.5 -24.5t-24.5 -8.5z" />
    <glyph glyph-name="igrave" unicode="&#xec;" horiz-adv-x="212" 
d="M106 -3q-10 0 -15.5 6t-5.5 16v446q0 11 5.5 16.5t15.5 5.5t15.5 -5.5t5.5 -16.5v-446q0 -10 -5 -16t-16 -6zM86 552l-104 171q-5 8 -4 15.5t6 12.5t12 6.5t14.5 -1.5t12.5 -13l91 -175q4 -8 2 -14t-8 -8.5t-12 -1t-10 7.5z" />
    <glyph glyph-name="iacute" unicode="&#xed;" horiz-adv-x="212" 
d="M106 -3q-10 0 -15.5 6t-5.5 16v446q0 11 5.5 16.5t15.5 5.5t15.5 -5.5t5.5 -16.5v-446q0 -10 -5 -16t-16 -6zM126 552q-4 -6 -10 -7.5t-12 1t-8 8.5t2 14l91 175q5 10 12.5 13t14.5 1.5t12 -6.5t6 -12.5t-4 -15.5z" />
    <glyph glyph-name="icircumflex" unicode="&#xee;" horiz-adv-x="212" 
d="M106 -3q-10 0 -15.5 6t-5.5 16v446q0 11 5.5 16.5t15.5 5.5t15.5 -5.5t5.5 -16.5v-446q0 -10 -5 -16t-16 -6zM229 568q4 -8 2 -14t-7.5 -8.5t-11.5 -1t-10 7.5l-96 158l-96 -158q-4 -6 -10 -7.5t-11.5 1t-7.5 8.5t2 14l93 170q6 11 13.5 15.5t16.5 4.5t16.5 -4.5
t13.5 -15.5z" />
    <glyph glyph-name="idieresis" unicode="&#xef;" horiz-adv-x="212" 
d="M106 -3q-10 0 -15.5 6t-5.5 16v446q0 11 5.5 16.5t15.5 5.5t15.5 -5.5t5.5 -16.5v-446q0 -10 -5 -16t-16 -6zM187 617q-16 0 -25 8.5t-9 24.5t9 24.5t25 8.5t24.5 -8.5t8.5 -24.5t-8.5 -24.5t-24.5 -8.5zM26 617q-16 0 -25 8.5t-9 24.5t9 24.5t25 8.5t24.5 -8.5
t8.5 -24.5t-8.5 -24.5t-24.5 -8.5z" />
    <glyph glyph-name="eth" unicode="&#xf0;" horiz-adv-x="541" 
d="M269 -8q-65 0 -114 28.5t-75.5 80.5t-26.5 122t27.5 122t76.5 80.5t115 28.5q51 0 90 -18.5t65 -55.5t38 -94h-19q1 111 -40.5 196t-125.5 138l25 2l-157 -66q-10 -4 -17 -1.5t-10 9t0 14t13 11.5l126 53v-10q-22 13 -45.5 23t-49.5 18q-11 3 -15 10t-1.5 13.5t9.5 9.5
t18 0q35 -11 65 -24.5t58 -30.5l-15 1l124 52q10 4 17 1.5t10 -9t0.5 -13.5t-13.5 -12l-105 -44l3 10q56 -38 93 -90.5t56 -118.5t19 -147q0 -72 -14 -126t-41.5 -90t-68.5 -54.5t-95 -18.5zM268 31q54 0 93 23t60 66.5t21 102.5q0 89 -46.5 140.5t-126.5 51.5
q-53 0 -92 -23t-60 -66t-21 -103q0 -91 45.5 -141.5t126.5 -50.5z" />
    <glyph glyph-name="ntilde" unicode="&#xf1;" horiz-adv-x="553" 
d="M106 -6q-10 0 -15.5 6t-5.5 16v452q0 11 5.5 16.5t15.5 5.5t15 -5.5t5 -16.5v-102h-11q20 63 69 94.5t113 31.5q58 0 96.5 -20t57.5 -61t19 -103v-292q0 -10 -5.5 -16t-15.5 -6t-15.5 6t-5.5 16v288q0 77 -31 113t-100 36q-77 0 -123.5 -47.5t-46.5 -127.5v-262
q0 -22 -21 -22zM126 592q-7 0 -11.5 5t-3.5 15q4 26 12 45.5t20 33t27.5 20.5t34.5 7q24 0 42.5 -13t35 -29.5t32.5 -29.5t34 -13q24 0 39.5 19.5t22.5 55.5q2 8 6.5 11.5t10.5 3.5q7 0 12 -5t3 -15q-5 -34 -18 -57.5t-32 -36t-44 -12.5q-24 0 -42.5 13t-35 29.5t-32.5 29.5
t-34 13q-24 0 -39.5 -19.5t-22.5 -55.5q-1 -7 -6 -11t-11 -4z" />
    <glyph glyph-name="ograve" unicode="&#xf2;" horiz-adv-x="538" 
d="M269 -8q-66 0 -114.5 31t-75 87t-26.5 132q0 57 15 103t43.5 79t68.5 50.5t89 17.5q66 0 114.5 -31t75 -87t26.5 -132q0 -57 -15 -103t-43.5 -79t-68 -50.5t-89.5 -17.5zM269 31q53 0 92 25t60 72.5t21 113.5q0 100 -46.5 155.5t-126.5 55.5q-53 0 -92 -25t-60 -72
t-21 -114q0 -100 47 -155.5t126 -55.5zM249 552l-104 171q-5 8 -4 15.5t6 12.5t12 6.5t14.5 -1.5t12.5 -13l91 -175q4 -8 2 -14t-8 -8.5t-12 -1t-10 7.5z" />
    <glyph glyph-name="oacute" unicode="&#xf3;" horiz-adv-x="538" 
d="M269 -8q-66 0 -114.5 31t-75 87t-26.5 132q0 57 15 103t43.5 79t68.5 50.5t89 17.5q66 0 114.5 -31t75 -87t26.5 -132q0 -57 -15 -103t-43.5 -79t-68 -50.5t-89.5 -17.5zM269 31q53 0 92 25t60 72.5t21 113.5q0 100 -46.5 155.5t-126.5 55.5q-53 0 -92 -25t-60 -72
t-21 -114q0 -100 47 -155.5t126 -55.5zM289 552q-4 -6 -10 -7.5t-12 1t-8 8.5t2 14l91 175q5 10 12.5 13t14.5 1.5t12 -6.5t6 -12.5t-4 -15.5z" />
    <glyph glyph-name="ocircumflex" unicode="&#xf4;" horiz-adv-x="538" 
d="M269 -8q-66 0 -114.5 31t-75 87t-26.5 132q0 57 15 103t43.5 79t68.5 50.5t89 17.5q66 0 114.5 -31t75 -87t26.5 -132q0 -57 -15 -103t-43.5 -79t-68 -50.5t-89.5 -17.5zM269 31q53 0 92 25t60 72.5t21 113.5q0 100 -46.5 155.5t-126.5 55.5q-53 0 -92 -25t-60 -72
t-21 -114q0 -100 47 -155.5t126 -55.5zM392 568q4 -8 2 -14t-7.5 -8.5t-11.5 -1t-10 7.5l-96 158l-96 -158q-4 -6 -10 -7.5t-11.5 1t-7.5 8.5t2 14l93 170q6 11 13.5 15.5t16.5 4.5t16.5 -4.5t13.5 -15.5z" />
    <glyph glyph-name="otilde" unicode="&#xf5;" horiz-adv-x="538" 
d="M269 -8q-66 0 -114.5 31t-75 87t-26.5 132q0 57 15 103t43.5 79t68.5 50.5t89 17.5q66 0 114.5 -31t75 -87t26.5 -132q0 -57 -15 -103t-43.5 -79t-68 -50.5t-89.5 -17.5zM269 31q53 0 92 25t60 72.5t21 113.5q0 100 -46.5 155.5t-126.5 55.5q-53 0 -92 -25t-60 -72
t-21 -114q0 -100 47 -155.5t126 -55.5zM118 592q-7 0 -11.5 5t-3.5 15q4 26 12 45.5t20 33t27.5 20.5t34.5 7q24 0 42.5 -13t35 -29.5t32.5 -29.5t34 -13q24 0 39.5 19.5t22.5 55.5q2 8 6.5 11.5t10.5 3.5q7 0 12 -5t3 -15q-5 -34 -18 -57.5t-32 -36t-44 -12.5
q-24 0 -42.5 13t-35 29.5t-32.5 29.5t-34 13q-24 0 -39.5 -19.5t-22.5 -55.5q-1 -7 -6 -11t-11 -4z" />
    <glyph glyph-name="odieresis" unicode="&#xf6;" horiz-adv-x="538" 
d="M269 -8q-66 0 -114.5 31t-75 87t-26.5 132q0 57 15 103t43.5 79t68.5 50.5t89 17.5q66 0 114.5 -31t75 -87t26.5 -132q0 -57 -15 -103t-43.5 -79t-68 -50.5t-89.5 -17.5zM269 31q53 0 92 25t60 72.5t21 113.5q0 100 -46.5 155.5t-126.5 55.5q-53 0 -92 -25t-60 -72
t-21 -114q0 -100 47 -155.5t126 -55.5zM350 617q-16 0 -25 8.5t-9 24.5t9 24.5t25 8.5t24.5 -8.5t8.5 -24.5t-8.5 -24.5t-24.5 -8.5zM189 617q-16 0 -25 8.5t-9 24.5t9 24.5t25 8.5t24.5 -8.5t8.5 -24.5t-8.5 -24.5t-24.5 -8.5z" />
    <glyph glyph-name="divide" unicode="&#xf7;" horiz-adv-x="600" 
d="M71 267q-10 0 -15.5 5.5t-5.5 14.5t5.5 14t15.5 5h458q10 0 15.5 -5t5.5 -14q0 -10 -5.5 -15t-15.5 -5h-458zM294 51q-16 0 -25.5 9.5t-9.5 25.5q0 17 9.5 26t25.5 9q17 0 26 -9t9 -26q0 -16 -9 -25.5t-26 -9.5zM294 452q-16 0 -25.5 9.5t-9.5 25.5q0 17 9.5 26t25.5 9
q17 0 26 -9t9 -26q0 -16 -9 -25.5t-26 -9.5z" />
    <glyph glyph-name="oslash" unicode="&#xf8;" horiz-adv-x="538" 
d="M269 -8q-66 0 -114.5 31t-75 87t-26.5 132q0 57 15 103t43.5 79t68.5 50.5t89 17.5q66 0 114.5 -31t75 -87t26.5 -132q0 -57 -15 -103t-43.5 -79t-68 -50.5t-89.5 -17.5zM269 31q53 0 92 25t60 72.5t21 113.5q0 100 -46.5 155.5t-126.5 55.5q-53 0 -92 -25t-60 -72
t-21 -114q0 -100 47 -155.5t126 -55.5zM135 -26q-5 -8 -12 -9.5t-12.5 2t-7.5 11t3 16.5l297 516q5 8 12 9.5t12.5 -2t7.5 -11t-3 -16.5z" />
    <glyph glyph-name="ugrave" unicode="&#xf9;" horiz-adv-x="545" 
d="M254 -8q-57 0 -95 21t-57 62t-19 102v291q0 11 5.5 16.5t15.5 5.5t15.5 -5.5t5.5 -16.5v-287q0 -76 31 -113t98 -37q73 0 118.5 48.5t45.5 127.5v261q0 11 5.5 16.5t15.5 5.5t15.5 -5.5t5.5 -16.5v-452q0 -22 -20 -22q-10 0 -15.5 6t-5.5 16v105h12q-19 -63 -67 -96
t-110 -33zM253 553l-104 171q-5 8 -4 15.5t6 12.5t12 6.5t14.5 -1.5t12.5 -13l91 -175q4 -8 2 -14t-8 -8.5t-12 -1t-10 7.5z" />
    <glyph glyph-name="uacute" unicode="&#xfa;" horiz-adv-x="545" 
d="M254 -8q-57 0 -95 21t-57 62t-19 102v291q0 11 5.5 16.5t15.5 5.5t15.5 -5.5t5.5 -16.5v-287q0 -76 31 -113t98 -37q73 0 118.5 48.5t45.5 127.5v261q0 11 5.5 16.5t15.5 5.5t15.5 -5.5t5.5 -16.5v-452q0 -22 -20 -22q-10 0 -15.5 6t-5.5 16v105h12q-19 -63 -67 -96
t-110 -33zM293 553q-4 -6 -10 -7.5t-12 1t-8 8.5t2 14l91 175q5 10 12.5 13t14.5 1.5t12 -6.5t6 -12.5t-4 -15.5z" />
    <glyph glyph-name="ucircumflex" unicode="&#xfb;" horiz-adv-x="545" 
d="M254 -8q-57 0 -95 21t-57 62t-19 102v291q0 11 5.5 16.5t15.5 5.5t15.5 -5.5t5.5 -16.5v-287q0 -76 31 -113t98 -37q73 0 118.5 48.5t45.5 127.5v261q0 11 5.5 16.5t15.5 5.5t15.5 -5.5t5.5 -16.5v-452q0 -22 -20 -22q-10 0 -15.5 6t-5.5 16v105h12q-19 -63 -67 -96
t-110 -33zM396 569q4 -8 2 -14t-7.5 -8.5t-11.5 -1t-10 7.5l-96 158l-96 -158q-4 -6 -10 -7.5t-11.5 1t-7.5 8.5t2 14l93 170q6 11 13.5 15.5t16.5 4.5t16.5 -4.5t13.5 -15.5z" />
    <glyph glyph-name="udieresis" unicode="&#xfc;" horiz-adv-x="545" 
d="M254 -8q-57 0 -95 21t-57 62t-19 102v291q0 11 5.5 16.5t15.5 5.5t15.5 -5.5t5.5 -16.5v-287q0 -76 31 -113t98 -37q73 0 118.5 48.5t45.5 127.5v261q0 11 5.5 16.5t15.5 5.5t15.5 -5.5t5.5 -16.5v-452q0 -22 -20 -22q-10 0 -15.5 6t-5.5 16v105h12q-19 -63 -67 -96
t-110 -33zM354 618q-16 0 -25 8.5t-9 24.5t9 24.5t25 8.5t24.5 -8.5t8.5 -24.5t-8.5 -24.5t-24.5 -8.5zM193 618q-16 0 -25 8.5t-9 24.5t9 24.5t25 8.5t24.5 -8.5t8.5 -24.5t-8.5 -24.5t-24.5 -8.5z" />
    <glyph glyph-name="yacute" unicode="&#xfd;" horiz-adv-x="504" 
d="M180 -186q-9 0 -14 5t-5 13t3 16l69 159v-20l-200 468q-4 10 -3 17.5t6.5 12.5t15.5 5q9 0 13.5 -4.5t8.5 -12.5l190 -459h-24l191 459q4 9 8.5 13t14.5 4t14.5 -5t5 -12.5t-3.5 -16.5l-266 -624q-4 -10 -9 -14t-15 -4zM272 552q-4 -6 -10 -7.5t-12 1t-8 8.5t2 14l91 175
q5 10 12.5 13t14.5 1.5t12 -6.5t6 -12.5t-4 -15.5z" />
    <glyph glyph-name="thorn" unicode="&#xfe;" horiz-adv-x="568" 
d="M106 -186q-10 0 -15.5 6t-5.5 16v853q0 11 5.5 16.5t15.5 5.5t15.5 -5.5t5.5 -16.5v-331h-11q17 62 65.5 98t118.5 36q66 0 114 -30.5t74.5 -86.5t26.5 -133q0 -76 -26 -132.5t-74.5 -87t-114.5 -30.5q-70 0 -118.5 36.5t-65.5 97.5h11v-290q0 -10 -5.5 -16t-15.5 -6z
M299 31q53 0 92 25t60 72.5t21 113.5q0 100 -46.5 155.5t-126.5 55.5q-53 0 -92 -25t-60 -72t-21 -114q0 -100 47 -155.5t126 -55.5z" />
    <glyph glyph-name="ydieresis" unicode="&#xff;" horiz-adv-x="504" 
d="M180 -186q-9 0 -14 5t-5 13t3 16l69 159v-20l-200 468q-4 10 -3 17.5t6.5 12.5t15.5 5q9 0 13.5 -4.5t8.5 -12.5l190 -459h-24l191 459q4 9 8.5 13t14.5 4t14.5 -5t5 -12.5t-3.5 -16.5l-266 -624q-4 -10 -9 -14t-15 -4zM333 617q-16 0 -25 8.5t-9 24.5t9 24.5t25 8.5
t24.5 -8.5t8.5 -24.5t-8.5 -24.5t-24.5 -8.5zM172 617q-16 0 -25 8.5t-9 24.5t9 24.5t25 8.5t24.5 -8.5t8.5 -24.5t-8.5 -24.5t-24.5 -8.5z" />
    <glyph glyph-name="Amacron" unicode="&#x100;" horiz-adv-x="716" 
d="M62 -6q-10 0 -15 4t-5 11.5t4 16.5l286 664q5 11 12 16t14 5q8 0 15 -5t11 -16l286 -664q4 -9 4 -16.5t-4 -11.5t-14 -4t-16.5 6t-10.5 15l-81 189l27 -9h-436l28 9l-81 -189q-4 -11 -11 -16t-13 -5zM357 648l-179 -420l-22 6h402l-20 -6l-179 420h-2zM225 822
q-21 0 -21 19q0 9 5.5 14t15.5 5h268q21 0 21 -19q0 -9 -5.5 -14t-15.5 -5h-268z" />
    <glyph glyph-name="amacron" unicode="&#x101;" horiz-adv-x="514" 
d="M231 -8q-47 0 -85 19t-60 51.5t-22 72.5q0 54 26.5 84.5t91 43t177.5 12.5h41v-37h-39q-99 0 -153.5 -8.5t-76 -30t-21.5 -60.5q0 -48 33.5 -78.5t90.5 -30.5q46 0 80.5 22.5t54.5 61t20 87.5v114q0 72 -28 105t-90 33q-40 0 -76.5 -11t-76.5 -34q-9 -5 -15.5 -4
t-10.5 5.5t-5.5 11t1 12.5t9.5 10q41 25 85 37t87 12q55 0 91 -19t53.5 -58t17.5 -100v-299q0 -10 -5 -16t-15 -6t-15.5 6t-5.5 16v105h11q-10 -40 -34 -69t-58.5 -44.5t-77.5 -15.5zM146 633q-21 0 -21 19q0 9 5.5 14t15.5 5h238q21 0 21 -19q0 -9 -5.5 -14t-15.5 -5h-238z
" />
    <glyph glyph-name="Abreve" unicode="&#x102;" horiz-adv-x="716" 
d="M62 -6q-10 0 -15 4t-5 11.5t4 16.5l286 664q5 11 12 16t14 5q8 0 15 -5t11 -16l286 -664q4 -9 4 -16.5t-4 -11.5t-14 -4t-16.5 6t-10.5 15l-81 189l27 -9h-436l28 9l-81 -189q-4 -11 -11 -16t-13 -5zM357 648l-179 -420l-22 6h402l-20 -6l-179 420h-2zM359 760
q-54 0 -98 36t-58 117q-1 9 4 14.5t12 5.5q4 0 7.5 -2t6 -5.5t3.5 -9.5q11 -67 46 -93.5t77 -26.5t77.5 26.5t45.5 93.5q1 6 3.5 9.5t6.5 5.5t7 2q7 0 12.5 -5.5t3.5 -14.5q-14 -81 -58 -117t-98 -36z" />
    <glyph glyph-name="abreve" unicode="&#x103;" horiz-adv-x="514" 
d="M231 -8q-47 0 -85 19t-60 51.5t-22 72.5q0 54 26.5 84.5t91 43t177.5 12.5h41v-37h-39q-99 0 -153.5 -8.5t-76 -30t-21.5 -60.5q0 -48 33.5 -78.5t90.5 -30.5q46 0 80.5 22.5t54.5 61t20 87.5v114q0 72 -28 105t-90 33q-40 0 -76.5 -11t-76.5 -34q-9 -5 -15.5 -4
t-10.5 5.5t-5.5 11t1 12.5t9.5 10q41 25 85 37t87 12q55 0 91 -19t53.5 -58t17.5 -100v-299q0 -10 -5 -16t-15 -6t-15.5 6t-5.5 16v105h11q-10 -40 -34 -69t-58.5 -44.5t-77.5 -15.5zM265 547q-39 0 -69 20t-49 58.5t-25 94.5q-1 9 4.5 14.5t12.5 5.5q6 0 10.5 -4.5
t5.5 -12.5q7 -70 35.5 -105t74.5 -35t75.5 35t34.5 105q1 8 5.5 12.5t10.5 4.5q7 0 12.5 -5.5t4.5 -14.5q-5 -56 -24 -94.5t-49.5 -58.5t-69.5 -20z" />
    <glyph glyph-name="Aogonek" unicode="&#x104;" horiz-adv-x="716" 
d="M665 -190q-41 0 -67.5 25t-26.5 67q0 32 17 62.5t46 52.5l2 -13q-2 2 -3.5 5t-3.5 6l-81 189l27 -9h-436l28 9l-81 -189q-4 -11 -11 -16t-13 -5q-10 0 -15 4t-5 11.5t4 16.5l286 664q5 11 12 16t14 5q8 0 15 -5t11 -16l286 -664q5 -10 4.5 -17.5t-8.5 -12.5t-21.5 -17.5
t-24 -30.5t-10.5 -42q0 -31 17.5 -45.5t42.5 -14.5q11 0 20.5 2t18.5 5q10 3 15.5 -0.5t7 -10.5t-1.5 -13.5t-10 -9.5q-14 -5 -27.5 -7t-27.5 -2zM357 648l-179 -420l-22 6h402l-20 -6l-179 420h-2z" />
    <glyph glyph-name="aogonek" unicode="&#x105;" horiz-adv-x="514" 
d="M414 -190q-41 0 -67.5 25t-26.5 67q0 36 22 69.5t61 55.5l-11 -21q-1 2 -1.5 5.5t-0.5 6.5v103h11q-10 -40 -34 -69t-58.5 -44.5t-77.5 -15.5q-47 0 -85 19t-60 51.5t-22 72.5q0 54 26.5 84.5t91 43t177.5 12.5h41v-37h-39q-99 0 -153.5 -8.5t-76 -30t-21.5 -60.5
q0 -48 33.5 -78.5t90.5 -30.5q46 0 80.5 22.5t54.5 61t20 87.5v114q0 72 -28 105t-90 33q-40 0 -76.5 -11t-76.5 -34q-9 -5 -15.5 -4t-10.5 5.5t-5.5 11t1 12.5t9.5 10q41 25 85 37t87 12q55 0 91 -19t53.5 -58t17.5 -100v-299q0 -8 -3.5 -13.5t-8.5 -8.5q-22 -13 -41 -35
t-19 -53t17.5 -45.5t42.5 -14.5q11 0 20.5 2t18.5 5q10 3 15.5 -0.5t7 -10.5t-1.5 -13.5t-10 -9.5q-14 -5 -27.5 -7t-27.5 -2z" />
    <glyph glyph-name="Cacute" unicode="&#x106;" horiz-adv-x="667" 
d="M381 -8q-99 0 -169 43.5t-107.5 124.5t-37.5 193q0 84 21 150.5t61.5 113t99 71.5t132.5 25q68 0 126.5 -21t99.5 -61q7 -7 9 -14.5t-0.5 -13.5t-7.5 -9.5t-12 -2.5t-15 8q-40 37 -89.5 55t-111.5 18q-86 0 -146 -37.5t-91 -109t-31 -172.5q0 -102 31 -173.5t91 -109
t146 -37.5q60 0 110 18.5t91 55.5q8 7 15 7.5t12 -3t7.5 -9.5t1.5 -13t-8 -13q-44 -42 -101 -63t-127 -21zM403 768q-5 -6 -11.5 -7t-11.5 2t-6.5 9t3.5 13l99 143q6 9 13.5 11.5t14.5 0.5t11.5 -7t4.5 -12t-6 -15z" />
    <glyph glyph-name="cacute" unicode="&#x107;" horiz-adv-x="455" 
d="M274 -8q-69 0 -118.5 32t-76 89t-26.5 133q0 57 15 102.5t43.5 77.5t69.5 49t93 17q38 0 77.5 -13.5t70.5 -44.5q5 -5 5.5 -11t-2 -11.5t-7.5 -8.5t-12 -2.5t-14 7.5q-29 26 -59.5 35.5t-59.5 9.5q-43 0 -76 -14t-55.5 -40.5t-34 -65t-11.5 -88.5q0 -100 46 -157t131 -57
q29 0 59.5 9.5t59.5 35.5q7 7 14 7.5t12 -2.5t7.5 -8.5t2 -11.5t-5.5 -11q-31 -31 -70.5 -44.5t-77.5 -13.5zM293 552q-4 -6 -10 -7.5t-12 1t-8 8.5t2 14l91 175q5 10 12.5 13t14.5 1.5t12 -6.5t6 -12.5t-4 -15.5z" />
    <glyph glyph-name="Ccircumflex" unicode="&#x108;" horiz-adv-x="667" 
d="M381 -8q-99 0 -169 43.5t-107.5 124.5t-37.5 193q0 84 21 150.5t61.5 113t99 71.5t132.5 25q68 0 126.5 -21t99.5 -61q7 -7 9 -14.5t-0.5 -13.5t-7.5 -9.5t-12 -2.5t-15 8q-40 37 -89.5 55t-111.5 18q-86 0 -146 -37.5t-91 -109t-31 -172.5q0 -102 31 -173.5t91 -109
t146 -37.5q60 0 110 18.5t91 55.5q8 7 15 7.5t12 -3t7.5 -9.5t1.5 -13t-8 -13q-44 -42 -101 -63t-127 -21zM275 766q-6 -7 -12.5 -8t-11.5 2t-6 9t4 13l101 142q7 10 15 13.5t17 3.5t17 -3.5t15 -13.5l101 -142q5 -7 4 -13t-6 -9t-11.5 -2t-12.5 8l-107 131z" />
    <glyph glyph-name="ccircumflex" unicode="&#x109;" horiz-adv-x="455" 
d="M274 -8q-69 0 -118.5 32t-76 89t-26.5 133q0 57 15 102.5t43.5 77.5t69.5 49t93 17q38 0 77.5 -13.5t70.5 -44.5q5 -5 5.5 -11t-2 -11.5t-7.5 -8.5t-12 -2.5t-14 7.5q-29 26 -59.5 35.5t-59.5 9.5q-43 0 -76 -14t-55.5 -40.5t-34 -65t-11.5 -88.5q0 -100 46 -157t131 -57
q29 0 59.5 9.5t59.5 35.5q7 7 14 7.5t12 -2.5t7.5 -8.5t2 -11.5t-5.5 -11q-31 -31 -70.5 -44.5t-77.5 -13.5zM396 568q4 -8 2 -14t-7.5 -8.5t-11.5 -1t-10 7.5l-96 158l-96 -158q-4 -6 -10 -7.5t-11.5 1t-7.5 8.5t2 14l93 170q6 11 13.5 15.5t16.5 4.5t16.5 -4.5t13.5 -15.5
z" />
    <glyph glyph-name="Cdotaccent" unicode="&#x10a;" horiz-adv-x="667" 
d="M381 -8q-99 0 -169 43.5t-107.5 124.5t-37.5 193q0 84 21 150.5t61.5 113t99 71.5t132.5 25q68 0 126.5 -21t99.5 -61q7 -7 9 -14.5t-0.5 -13.5t-7.5 -9.5t-12 -2.5t-15 8q-40 37 -89.5 55t-111.5 18q-86 0 -146 -37.5t-91 -109t-31 -172.5q0 -102 31 -173.5t91 -109
t146 -37.5q60 0 110 18.5t91 55.5q8 7 15 7.5t12 -3t7.5 -9.5t1.5 -13t-8 -13q-44 -42 -101 -63t-127 -21zM382 815q-16 0 -25 9.5t-9 25.5q0 17 9 25.5t25 8.5q17 0 25.5 -8.5t8.5 -25.5q0 -16 -8.5 -25.5t-25.5 -9.5z" />
    <glyph glyph-name="cdotaccent" unicode="&#x10b;" horiz-adv-x="455" 
d="M274 -8q-69 0 -118.5 32t-76 89t-26.5 133q0 57 15 102.5t43.5 77.5t69.5 49t93 17q38 0 77.5 -13.5t70.5 -44.5q5 -5 5.5 -11t-2 -11.5t-7.5 -8.5t-12 -2.5t-14 7.5q-29 26 -59.5 35.5t-59.5 9.5q-43 0 -76 -14t-55.5 -40.5t-34 -65t-11.5 -88.5q0 -100 46 -157t131 -57
q29 0 59.5 9.5t59.5 35.5q7 7 14 7.5t12 -2.5t7.5 -8.5t2 -11.5t-5.5 -11q-31 -31 -70.5 -44.5t-77.5 -13.5zM273 616q-16 0 -25.5 9.5t-9.5 25.5q0 17 9.5 25.5t25.5 8.5q17 0 26 -8.5t9 -25.5q0 -16 -9 -25.5t-26 -9.5z" />
    <glyph glyph-name="Ccaron" unicode="&#x10c;" horiz-adv-x="667" 
d="M381 -8q-99 0 -169 43.5t-107.5 124.5t-37.5 193q0 84 21 150.5t61.5 113t99 71.5t132.5 25q68 0 126.5 -21t99.5 -61q7 -7 9 -14.5t-0.5 -13.5t-7.5 -9.5t-12 -2.5t-15 8q-40 37 -89.5 55t-111.5 18q-86 0 -146 -37.5t-91 -109t-31 -172.5q0 -102 31 -173.5t91 -109
t146 -37.5q60 0 110 18.5t91 55.5q8 7 15 7.5t12 -3t7.5 -9.5t1.5 -13t-8 -13q-44 -42 -101 -63t-127 -21zM382 758q-9 0 -17 3.5t-15 13.5l-101 142q-5 7 -4 13t6 9t11.5 2t12.5 -8l107 -131l107 131q6 7 12.5 8t11.5 -2t6 -9t-4 -13l-101 -142q-7 -10 -15 -13.5t-17 -3.5z
" />
    <glyph glyph-name="ccaron" unicode="&#x10d;" horiz-adv-x="455" 
d="M274 -8q-69 0 -118.5 32t-76 89t-26.5 133q0 57 15 102.5t43.5 77.5t69.5 49t93 17q38 0 77.5 -13.5t70.5 -44.5q5 -5 5.5 -11t-2 -11.5t-7.5 -8.5t-12 -2.5t-14 7.5q-29 26 -59.5 35.5t-59.5 9.5q-43 0 -76 -14t-55.5 -40.5t-34 -65t-11.5 -88.5q0 -100 46 -157t131 -57
q29 0 59.5 9.5t59.5 35.5q7 7 14 7.5t12 -2.5t7.5 -8.5t2 -11.5t-5.5 -11q-31 -31 -70.5 -44.5t-77.5 -13.5zM273 540q-9 0 -16.5 4.5t-13.5 15.5l-93 170q-4 8 -2 14t7.5 8.5t11.5 1t10 -7.5l96 -158l96 158q4 6 10 7.5t11.5 -1t7.5 -8.5t-2 -14l-93 -170
q-6 -11 -13.5 -15.5t-16.5 -4.5z" />
    <glyph glyph-name="Dcaron" unicode="&#x10e;" horiz-adv-x="725" 
d="M121 0q-12 0 -18.5 6.5t-6.5 18.5v655q0 12 6.5 18.5t18.5 6.5h192q166 0 255.5 -89.5t89.5 -262.5q0 -86 -23 -152t-67 -110.5t-108 -67.5t-147 -23h-192zM138 39h171q76 0 133 20t95 59t57 98t19 137q0 156 -76 234.5t-228 78.5h-171v-627zM362 758q-9 0 -17 3.5
t-15 13.5l-101 142q-5 7 -4 13t6 9t11.5 2t12.5 -8l107 -131l107 131q6 7 12.5 8t11.5 -2t6 -9t-4 -13l-101 -142q-7 -10 -15 -13.5t-17 -3.5z" />
    <glyph glyph-name="dcaron" unicode="&#x10f;" horiz-adv-x="568" 
d="M268 -8q-65 0 -113.5 30.5t-75 87t-26.5 132.5q0 77 26 133t74.5 86.5t114.5 30.5q70 0 119 -36t65 -98h-11v331q0 11 5.5 16.5t15.5 5.5t15.5 -5.5t5.5 -16.5v-673q0 -10 -5.5 -16t-15.5 -6t-15.5 6t-5.5 16v110h11q-16 -61 -65 -97.5t-119 -36.5zM269 31q53 0 92 25
t60 72.5t21 113.5q0 100 -46.5 155.5t-126.5 55.5q-53 0 -92 -25t-60 -72t-21 -114q0 -100 47 -155.5t126 -55.5zM547 514q-6 0 -10 3.5t-4 10.5v158q0 25 25 25q12 0 18 -7t4 -19l-19 -158q-2 -13 -14 -13z" />
    <glyph glyph-name="Dcroat" unicode="&#x110;" horiz-adv-x="725" 
d="M121 0q-12 0 -18.5 6.5t-6.5 18.5v655q0 12 6.5 18.5t18.5 6.5h192q166 0 255.5 -89.5t89.5 -262.5q0 -86 -23 -152t-67 -110.5t-108 -67.5t-147 -23h-192zM138 39h171q76 0 133 20t95 59t57 98t19 137q0 156 -76 234.5t-228 78.5h-171v-627zM19 340q-10 0 -15 5t-5 14
q0 8 5 13t15 5h307q10 0 15 -4.5t5 -13.5t-5 -14t-15 -5h-307z" />
    <glyph glyph-name="dcroat" unicode="&#x111;" horiz-adv-x="568" 
d="M268 -8q-65 0 -113.5 30.5t-75 87t-26.5 132.5q0 77 26 133t74.5 86.5t114.5 30.5q70 0 119 -36t65 -98h-11v204h-179q-10 0 -16 5t-6 13t6 13t16 5h191l-12 -13v104q0 11 5.5 16.5t15.5 5.5t15.5 -5.5t5.5 -16.5v-104l-12 13h89q11 0 16.5 -5t5.5 -13t-5.5 -13t-16.5 -5
h-77v-546q0 -10 -5.5 -16t-15.5 -6t-15.5 6t-5.5 16v110h11q-16 -61 -65 -97.5t-119 -36.5zM269 31q53 0 92 25t60 72.5t21 113.5q0 100 -46.5 155.5t-126.5 55.5q-53 0 -92 -25t-60 -72t-21 -114q0 -100 47 -155.5t126 -55.5z" />
    <glyph glyph-name="Emacron" unicode="&#x112;" horiz-adv-x="570" 
d="M121 0q-12 0 -18.5 6.5t-6.5 18.5v655q0 12 6.5 18.5t18.5 6.5h384q10 0 15.5 -5t5.5 -14q0 -10 -5.5 -15t-15.5 -5h-367v-289h347q10 0 15.5 -5t5.5 -14q0 -10 -5.5 -15t-15.5 -5h-347v-299h367q10 0 15.5 -5t5.5 -14q0 -10 -5.5 -15t-15.5 -5h-384zM186 822
q-21 0 -21 19q0 9 5.5 14t15.5 5h268q21 0 21 -19q0 -9 -5.5 -14t-15.5 -5h-268z" />
    <glyph glyph-name="emacron" unicode="&#x113;" horiz-adv-x="523" 
d="M286 -8q-72 0 -124 30t-80.5 85.5t-28.5 132.5q0 76 28.5 132.5t79 88t116.5 31.5q47 0 83.5 -16t62 -46t39 -73t13.5 -97q0 -13 -5.5 -19.5t-16.5 -6.5h-373v37h373l-17 -12q0 61 -18 104.5t-53.5 67t-88.5 23.5q-58 0 -98.5 -27.5t-61 -74.5t-20.5 -107v-5
q0 -100 49.5 -154.5t138.5 -54.5q40 0 75 10.5t69 37.5q7 6 14.5 6.5t13 -3t8 -9t0.5 -12.5t-10 -13q-31 -26 -76 -41t-92 -15zM158 633q-21 0 -21 19q0 9 5.5 14t15.5 5h238q21 0 21 -19q0 -9 -5.5 -14t-15.5 -5h-238z" />
    <glyph glyph-name="Ebreve" unicode="&#x114;" horiz-adv-x="570" 
d="M121 0q-12 0 -18.5 6.5t-6.5 18.5v655q0 12 6.5 18.5t18.5 6.5h384q10 0 15.5 -5t5.5 -14q0 -10 -5.5 -15t-15.5 -5h-367v-289h347q10 0 15.5 -5t5.5 -14q0 -10 -5.5 -15t-15.5 -5h-347v-299h367q10 0 15.5 -5t5.5 -14q0 -10 -5.5 -15t-15.5 -5h-384zM320 760
q-54 0 -98 36t-58 117q-1 9 4 14.5t12 5.5q4 0 7.5 -2t6 -5.5t3.5 -9.5q11 -67 46 -93.5t77 -26.5t77.5 26.5t45.5 93.5q1 6 3.5 9.5t6.5 5.5t7 2q7 0 12.5 -5.5t3.5 -14.5q-14 -81 -58 -117t-98 -36z" />
    <glyph glyph-name="ebreve" unicode="&#x115;" horiz-adv-x="523" 
d="M286 -8q-72 0 -124 30t-80.5 85.5t-28.5 132.5q0 76 28.5 132.5t79 88t116.5 31.5q47 0 83.5 -16t62 -46t39 -73t13.5 -97q0 -13 -5.5 -19.5t-16.5 -6.5h-373v37h373l-17 -12q0 61 -18 104.5t-53.5 67t-88.5 23.5q-58 0 -98.5 -27.5t-61 -74.5t-20.5 -107v-5
q0 -100 49.5 -154.5t138.5 -54.5q40 0 75 10.5t69 37.5q7 6 14.5 6.5t13 -3t8 -9t0.5 -12.5t-10 -13q-31 -26 -76 -41t-92 -15zM277 547q-39 0 -69 20t-49 58.5t-25 94.5q-1 9 4.5 14.5t12.5 5.5q6 0 10.5 -4.5t5.5 -12.5q7 -70 35.5 -105t74.5 -35t75.5 35t34.5 105
q1 8 5.5 12.5t10.5 4.5q7 0 12.5 -5.5t4.5 -14.5q-5 -56 -24 -94.5t-49.5 -58.5t-69.5 -20z" />
    <glyph glyph-name="Edotaccent" unicode="&#x116;" horiz-adv-x="570" 
d="M121 0q-12 0 -18.5 6.5t-6.5 18.5v655q0 12 6.5 18.5t18.5 6.5h384q10 0 15.5 -5t5.5 -14q0 -10 -5.5 -15t-15.5 -5h-367v-289h347q10 0 15.5 -5t5.5 -14q0 -10 -5.5 -15t-15.5 -5h-347v-299h367q10 0 15.5 -5t5.5 -14q0 -10 -5.5 -15t-15.5 -5h-384zM320 815
q-16 0 -25 9.5t-9 25.5q0 17 9 25.5t25 8.5q17 0 25.5 -8.5t8.5 -25.5q0 -16 -8.5 -25.5t-25.5 -9.5z" />
    <glyph glyph-name="edotaccent" unicode="&#x117;" horiz-adv-x="523" 
d="M286 -8q-72 0 -124 30t-80.5 85.5t-28.5 132.5q0 76 28.5 132.5t79 88t116.5 31.5q47 0 83.5 -16t62 -46t39 -73t13.5 -97q0 -13 -5.5 -19.5t-16.5 -6.5h-373v37h373l-17 -12q0 61 -18 104.5t-53.5 67t-88.5 23.5q-58 0 -98.5 -27.5t-61 -74.5t-20.5 -107v-5
q0 -100 49.5 -154.5t138.5 -54.5q40 0 75 10.5t69 37.5q7 6 14.5 6.5t13 -3t8 -9t0.5 -12.5t-10 -13q-31 -26 -76 -41t-92 -15zM277 616q-16 0 -25.5 9.5t-9.5 25.5q0 17 9.5 25.5t25.5 8.5q17 0 26 -8.5t9 -25.5q0 -16 -9 -25.5t-26 -9.5z" />
    <glyph glyph-name="Eogonek" unicode="&#x118;" horiz-adv-x="570" 
d="M121 0q-12 0 -18.5 6.5t-6.5 18.5v655q0 12 6.5 18.5t18.5 6.5h384q10 0 15.5 -5t5.5 -14q0 -10 -5.5 -15t-15.5 -5h-367v-289h347q10 0 15.5 -5t5.5 -14q0 -10 -5.5 -15t-15.5 -5h-347v-299h367q10 0 15.5 -5t5.5 -14q0 -10 -5.5 -15t-15.5 -5h-384zM473 -190
q-41 0 -67.5 25t-26.5 67q0 38 23.5 72.5t66.5 56.5l21 -31q-15 -6 -31.5 -19t-28.5 -32t-12 -43q0 -31 17.5 -45.5t42.5 -14.5q11 0 20.5 2t18.5 5q10 3 15.5 -0.5t7 -10.5t-1.5 -13.5t-10 -9.5q-14 -5 -27.5 -7t-27.5 -2z" />
    <glyph glyph-name="eogonek" unicode="&#x119;" horiz-adv-x="523" 
d="M286 -8q-72 0 -124 30t-80.5 85.5t-28.5 132.5q0 76 28.5 132.5t79 88t116.5 31.5q47 0 83.5 -16t62 -46t39 -73t13.5 -97q0 -13 -5.5 -19.5t-16.5 -6.5h-373v37h373l-17 -12q0 61 -18 104.5t-53.5 67t-88.5 23.5q-58 0 -98.5 -27.5t-61 -74.5t-20.5 -107v-5
q0 -100 49.5 -154.5t138.5 -54.5q40 0 75 10.5t69 37.5q7 6 14.5 6.5t13 -3t8 -9t0.5 -12.5t-10 -13q-31 -26 -76 -41t-92 -15zM325 -190q-41 0 -67.5 25t-26.5 67q0 38 23.5 72.5t66.5 56.5l21 -31q-15 -6 -31.5 -19t-28.5 -32t-12 -43q0 -31 17.5 -45.5t42.5 -14.5
q11 0 20.5 2t18.5 5q10 3 15.5 -0.5t7 -10.5t-1.5 -13.5t-10 -9.5q-14 -5 -27.5 -7t-27.5 -2z" />
    <glyph glyph-name="Ecaron" unicode="&#x11a;" horiz-adv-x="570" 
d="M121 0q-12 0 -18.5 6.5t-6.5 18.5v655q0 12 6.5 18.5t18.5 6.5h384q10 0 15.5 -5t5.5 -14q0 -10 -5.5 -15t-15.5 -5h-367v-289h347q10 0 15.5 -5t5.5 -14q0 -10 -5.5 -15t-15.5 -5h-347v-299h367q10 0 15.5 -5t5.5 -14q0 -10 -5.5 -15t-15.5 -5h-384zM320 758
q-9 0 -17 3.5t-15 13.5l-101 142q-5 7 -4 13t6 9t11.5 2t12.5 -8l107 -131l107 131q6 7 12.5 8t11.5 -2t6 -9t-4 -13l-101 -142q-7 -10 -15 -13.5t-17 -3.5z" />
    <glyph glyph-name="ecaron" unicode="&#x11b;" horiz-adv-x="523" 
d="M286 -8q-72 0 -124 30t-80.5 85.5t-28.5 132.5q0 76 28.5 132.5t79 88t116.5 31.5q47 0 83.5 -16t62 -46t39 -73t13.5 -97q0 -13 -5.5 -19.5t-16.5 -6.5h-373v37h373l-17 -12q0 61 -18 104.5t-53.5 67t-88.5 23.5q-58 0 -98.5 -27.5t-61 -74.5t-20.5 -107v-5
q0 -100 49.5 -154.5t138.5 -54.5q40 0 75 10.5t69 37.5q7 6 14.5 6.5t13 -3t8 -9t0.5 -12.5t-10 -13q-31 -26 -76 -41t-92 -15zM277 540q-9 0 -16.5 4.5t-13.5 15.5l-93 170q-4 8 -2 14t7.5 8.5t11.5 1t10 -7.5l96 -158l96 158q4 6 10 7.5t11.5 -1t7.5 -8.5t-2 -14l-93 -170
q-6 -11 -13.5 -15.5t-16.5 -4.5z" />
    <glyph glyph-name="Gcircumflex" unicode="&#x11c;" horiz-adv-x="718" 
d="M402 -8q-109 0 -184 42.5t-113 123.5t-38 195q0 84 21 150.5t61.5 113t99 71.5t132.5 25q70 0 131 -21t104 -65q6 -6 7 -12.5t-1.5 -12.5t-7.5 -10t-11.5 -3.5t-12.5 6.5q-43 41 -95.5 59t-114.5 18q-86 0 -146 -37.5t-91 -109t-31 -172.5q0 -156 72 -238t217 -82
q56 0 106 10.5t93 29.5l-12 -38v281h-173q-10 0 -15.5 5.5t-5.5 14.5t5.5 14t15.5 5h192q10 0 15.5 -5.5t5.5 -15.5v-277q0 -8 -2.5 -14t-8.5 -9q-39 -18 -99 -30t-116 -12zM276 766q-6 -7 -12.5 -8t-11.5 2t-6 9t4 13l101 142q7 10 15 13.5t17 3.5t17 -3.5t15 -13.5
l101 -142q5 -7 4 -13t-6 -9t-11.5 -2t-12.5 8l-107 131z" />
    <glyph glyph-name="gcircumflex" unicode="&#x11d;" horiz-adv-x="570" 
d="M290 -188q-53 0 -103.5 15t-91.5 47q-5 4 -6.5 10t0.5 11.5t6.5 10t10 5t11.5 -3.5q44 -31 84.5 -43.5t89.5 -12.5q75 0 114 42.5t39 121.5v133h10q-14 -64 -64 -100.5t-119 -36.5q-67 0 -116 30.5t-75.5 85t-26.5 125.5q0 54 15 98t43.5 75.5t68.5 49t91 17.5
q69 0 119 -36.5t64 -100.5h-11v113q0 11 5.5 16.5t15.5 5.5t15.5 -5.5t5.5 -16.5v-446q0 -104 -49 -157t-146 -53zM270 50q54 0 93 25t60 70.5t21 106.5q0 92 -47 146.5t-127 54.5q-53 0 -92.5 -24.5t-60.5 -69.5t-21 -107q0 -92 47 -147t127 -55zM411 568q4 -8 2 -14
t-7.5 -8.5t-11.5 -1t-10 7.5l-96 158l-96 -158q-4 -6 -10 -7.5t-11.5 1t-7.5 8.5t2 14l93 170q6 11 13.5 15.5t16.5 4.5t16.5 -4.5t13.5 -15.5z" />
    <glyph glyph-name="Gbreve" unicode="&#x11e;" horiz-adv-x="718" 
d="M402 -8q-109 0 -184 42.5t-113 123.5t-38 195q0 84 21 150.5t61.5 113t99 71.5t132.5 25q70 0 131 -21t104 -65q6 -6 7 -12.5t-1.5 -12.5t-7.5 -10t-11.5 -3.5t-12.5 6.5q-43 41 -95.5 59t-114.5 18q-86 0 -146 -37.5t-91 -109t-31 -172.5q0 -156 72 -238t217 -82
q56 0 106 10.5t93 29.5l-12 -38v281h-173q-10 0 -15.5 5.5t-5.5 14.5t5.5 14t15.5 5h192q10 0 15.5 -5.5t5.5 -15.5v-277q0 -8 -2.5 -14t-8.5 -9q-39 -18 -99 -30t-116 -12zM383 760q-54 0 -98 36t-58 117q-1 9 4 14.5t12 5.5q4 0 7.5 -2t6 -5.5t3.5 -9.5q11 -67 46 -93.5
t77 -26.5t77.5 26.5t45.5 93.5q1 6 3.5 9.5t6.5 5.5t7 2q7 0 12.5 -5.5t3.5 -14.5q-14 -81 -58 -117t-98 -36z" />
    <glyph glyph-name="gbreve" unicode="&#x11f;" horiz-adv-x="570" 
d="M290 -188q-53 0 -103.5 15t-91.5 47q-5 4 -6.5 10t0.5 11.5t6.5 10t10 5t11.5 -3.5q44 -31 84.5 -43.5t89.5 -12.5q75 0 114 42.5t39 121.5v133h10q-14 -64 -64 -100.5t-119 -36.5q-67 0 -116 30.5t-75.5 85t-26.5 125.5q0 54 15 98t43.5 75.5t68.5 49t91 17.5
q69 0 119 -36.5t64 -100.5h-11v113q0 11 5.5 16.5t15.5 5.5t15.5 -5.5t5.5 -16.5v-446q0 -104 -49 -157t-146 -53zM270 50q54 0 93 25t60 70.5t21 106.5q0 92 -47 146.5t-127 54.5q-53 0 -92.5 -24.5t-60.5 -69.5t-21 -107q0 -92 47 -147t127 -55zM288 547q-39 0 -69 20
t-49 58.5t-25 94.5q-1 9 4.5 14.5t12.5 5.5q6 0 10.5 -4.5t5.5 -12.5q7 -70 35.5 -105t74.5 -35t75.5 35t34.5 105q1 8 5.5 12.5t10.5 4.5q7 0 12.5 -5.5t4.5 -14.5q-5 -56 -24 -94.5t-49.5 -58.5t-69.5 -20z" />
    <glyph glyph-name="Gdotaccent" unicode="&#x120;" horiz-adv-x="718" 
d="M402 -8q-109 0 -184 42.5t-113 123.5t-38 195q0 84 21 150.5t61.5 113t99 71.5t132.5 25q70 0 131 -21t104 -65q6 -6 7 -12.5t-1.5 -12.5t-7.5 -10t-11.5 -3.5t-12.5 6.5q-43 41 -95.5 59t-114.5 18q-86 0 -146 -37.5t-91 -109t-31 -172.5q0 -156 72 -238t217 -82
q56 0 106 10.5t93 29.5l-12 -38v281h-173q-10 0 -15.5 5.5t-5.5 14.5t5.5 14t15.5 5h192q10 0 15.5 -5.5t5.5 -15.5v-277q0 -8 -2.5 -14t-8.5 -9q-39 -18 -99 -30t-116 -12zM383 815q-16 0 -25 9.5t-9 25.5q0 17 9 25.5t25 8.5q17 0 25.5 -8.5t8.5 -25.5q0 -16 -8.5 -25.5
t-25.5 -9.5z" />
    <glyph glyph-name="gdotaccent" unicode="&#x121;" horiz-adv-x="570" 
d="M290 -188q-53 0 -103.5 15t-91.5 47q-5 4 -6.5 10t0.5 11.5t6.5 10t10 5t11.5 -3.5q44 -31 84.5 -43.5t89.5 -12.5q75 0 114 42.5t39 121.5v133h10q-14 -64 -64 -100.5t-119 -36.5q-67 0 -116 30.5t-75.5 85t-26.5 125.5q0 54 15 98t43.5 75.5t68.5 49t91 17.5
q69 0 119 -36.5t64 -100.5h-11v113q0 11 5.5 16.5t15.5 5.5t15.5 -5.5t5.5 -16.5v-446q0 -104 -49 -157t-146 -53zM270 50q54 0 93 25t60 70.5t21 106.5q0 92 -47 146.5t-127 54.5q-53 0 -92.5 -24.5t-60.5 -69.5t-21 -107q0 -92 47 -147t127 -55zM288 616q-16 0 -25.5 9.5
t-9.5 25.5q0 17 9.5 25.5t25.5 8.5q17 0 26 -8.5t9 -25.5q0 -16 -9 -25.5t-26 -9.5z" />
    <glyph glyph-name="uni0122" unicode="&#x122;" horiz-adv-x="718" 
d="M402 -8q-109 0 -184 42.5t-113 123.5t-38 195q0 84 21 150.5t61.5 113t99 71.5t132.5 25q70 0 131 -21t104 -65q6 -6 7 -12.5t-1.5 -12.5t-7.5 -10t-11.5 -3.5t-12.5 6.5q-43 41 -95.5 59t-114.5 18q-86 0 -146 -37.5t-91 -109t-31 -172.5q0 -156 72 -238t217 -82
q56 0 106 10.5t93 29.5l-12 -38v281h-173q-10 0 -15.5 5.5t-5.5 14.5t5.5 14t15.5 5h192q10 0 15.5 -5.5t5.5 -15.5v-277q0 -8 -2.5 -14t-8.5 -9q-39 -18 -99 -30t-116 -12zM393 -241q-7 -9 -14.5 -10.5t-12.5 2.5t-5.5 11.5t6.5 17.5q12 17 17.5 35.5t5.5 34.5l3 -9
q-18 0 -29 11t-11 27q0 17 10 27.5t26 10.5q17 0 27.5 -12t10.5 -36q0 -17 -3.5 -37t-11 -39t-19.5 -34z" />
    <glyph glyph-name="uni0123" unicode="&#x123;" horiz-adv-x="570" 
d="M290 -188q-53 0 -103.5 15t-91.5 47q-5 4 -6.5 10t0.5 11.5t6.5 10t10 5t11.5 -3.5q44 -31 84.5 -43.5t89.5 -12.5q75 0 114 42.5t39 121.5v133h10q-14 -64 -64 -100.5t-119 -36.5q-67 0 -116 30.5t-75.5 85t-26.5 125.5q0 54 15 98t43.5 75.5t68.5 49t91 17.5
q69 0 119 -36.5t64 -100.5h-11v113q0 11 5.5 16.5t15.5 5.5t15.5 -5.5t5.5 -16.5v-446q0 -104 -49 -157t-146 -53zM270 50q54 0 93 25t60 70.5t21 106.5q0 92 -47 146.5t-127 54.5q-53 0 -92.5 -24.5t-60.5 -69.5t-21 -107q0 -92 47 -147t127 -55zM289 567q-17 0 -27.5 12
t-10.5 36q0 17 3.5 37t11.5 39.5t19 33.5q7 9 14.5 10.5t12.5 -2.5t5.5 -11.5t-6.5 -17.5q-12 -17 -17.5 -35.5t-5.5 -34.5l-3 9q18 0 29 -10.5t11 -27.5q0 -16 -10 -27t-26 -11z" />
    <glyph glyph-name="Hcircumflex" unicode="&#x124;" horiz-adv-x="751" 
d="M117 -6q-10 0 -15.5 6t-5.5 16v673q0 11 5.5 16.5t15.5 5.5t15.5 -5.5t5.5 -16.5v-312h475v312q0 11 5.5 16.5t15.5 5.5t15.5 -5.5t5.5 -16.5v-673q0 -10 -5.5 -16t-15.5 -6t-15.5 6t-5.5 16v322h-475v-322q0 -10 -5 -16t-16 -6zM268 766q-6 -7 -12.5 -8t-11.5 2t-6 9
t4 13l101 142q7 10 15 13.5t17 3.5t17 -3.5t15 -13.5l101 -142q5 -7 4 -13t-6 -9t-11.5 -2t-12.5 8l-107 131z" />
    <glyph glyph-name="hcircumflex" unicode="&#x125;" horiz-adv-x="553" 
d="M106 -6q-10 0 -15.5 6t-5.5 16v673q0 11 5.5 16.5t15.5 5.5t15.5 -5.5t5.5 -16.5v-323h-12q20 63 69 94.5t113 31.5q58 0 96.5 -20.5t57.5 -61.5t19 -102v-292q0 -10 -5.5 -16t-15.5 -6t-15.5 6t-5.5 16v288q0 77 -31 113t-100 36q-77 0 -123.5 -47.5t-46.5 -127.5v-262
q0 -22 -21 -22zM171 766q-6 -7 -12.5 -8t-11.5 2t-6 9t4 13l101 142q7 10 15 13.5t17 3.5t17 -3.5t15 -13.5l101 -142q5 -7 4 -13t-6 -9t-11.5 -2t-12.5 8l-107 131z" />
    <glyph glyph-name="Hbar" unicode="&#x126;" horiz-adv-x="781" 
d="M132 -6q-10 0 -15.5 6t-5.5 16v520l9 -9h-89q-22 0 -22 19q0 9 6 14t16 5h89l-9 -9v133q0 11 5.5 16.5t15.5 5.5t15.5 -5.5t5.5 -16.5v-133l-9 9h493l-9 -9v133q0 11 5.5 16.5t15.5 5.5t15.5 -5.5t5.5 -16.5v-133l-9 9h89q22 0 22 -19q0 -9 -5.5 -14t-16.5 -5h-89l9 9
v-520q0 -10 -5.5 -16t-15.5 -6t-15.5 6t-5.5 16v322h-475v-322q0 -10 -5 -16t-16 -6zM153 377h475v150h-475v-150z" />
    <glyph glyph-name="hbar" unicode="&#x127;" horiz-adv-x="553" 
d="M106 -6q-10 0 -15.5 6t-5.5 16v546h-73q-10 0 -16 5t-6 13q0 18 22 18h82l-9 -9v100q0 11 5.5 16.5t15.5 5.5t15.5 -5.5t5.5 -16.5v-100l-9 9h184q11 0 16.5 -5t5.5 -13q0 -18 -22 -18h-175v-196h-12q20 63 69 94.5t113 31.5q58 0 96.5 -20.5t57.5 -61.5t19 -102v-292
q0 -10 -5.5 -16t-15.5 -6t-15.5 6t-5.5 16v288q0 77 -31 113t-100 36q-77 0 -123.5 -47.5t-46.5 -127.5v-262q0 -22 -21 -22z" />
    <glyph glyph-name="Itilde" unicode="&#x128;" horiz-adv-x="234" 
d="M117 -6q-10 0 -15.5 6t-5.5 16v673q0 11 5.5 16.5t15.5 5.5t15.5 -5.5t5.5 -16.5v-673q0 -10 -5 -16t-16 -6zM-62 789q-7 0 -11.5 5t-3.5 15q8 50 36.5 78t68.5 28q27 0 51 -13t46.5 -29.5t43 -29.5t40.5 -13q27 0 45.5 20t24.5 55q2 8 6.5 11.5t10.5 3.5q7 0 12 -5
t3 -15q-8 -49 -36 -77.5t-68 -28.5q-27 0 -51.5 13t-46.5 29.5t-43 29.5t-41 13q-27 0 -45.5 -20t-24.5 -55q-1 -7 -6 -11t-11 -4z" />
    <glyph glyph-name="itilde" unicode="&#x129;" horiz-adv-x="212" 
d="M106 -3q-10 0 -15.5 6t-5.5 16v446q0 11 5.5 16.5t15.5 5.5t15.5 -5.5t5.5 -16.5v-446q0 -10 -5 -16t-16 -6zM-45 592q-7 0 -11.5 5t-3.5 15q4 26 12 45.5t20 33t27.5 20.5t34.5 7q24 0 42.5 -13t35 -29.5t32.5 -29.5t34 -13q24 0 39.5 19.5t22.5 55.5q2 8 6.5 11.5
t10.5 3.5q7 0 12 -5t3 -15q-5 -34 -18 -57.5t-32 -36t-44 -12.5q-24 0 -42.5 13t-35 29.5t-32.5 29.5t-34 13q-24 0 -39.5 -19.5t-22.5 -55.5q-1 -7 -6 -11t-11 -4z" />
    <glyph glyph-name="Imacron" unicode="&#x12a;" horiz-adv-x="234" 
d="M117 -6q-10 0 -15.5 6t-5.5 16v673q0 11 5.5 16.5t15.5 5.5t15.5 -5.5t5.5 -16.5v-673q0 -10 -5 -16t-16 -6zM-17 822q-21 0 -21 19q0 9 5.5 14t15.5 5h268q21 0 21 -19q0 -9 -5.5 -14t-15.5 -5h-268z" />
    <glyph glyph-name="imacron" unicode="&#x12b;" horiz-adv-x="212" 
d="M106 -3q-10 0 -15.5 6t-5.5 16v446q0 11 5.5 16.5t15.5 5.5t15.5 -5.5t5.5 -16.5v-446q0 -10 -5 -16t-16 -6zM-13 633q-21 0 -21 19q0 9 5.5 14t15.5 5h238q21 0 21 -19q0 -9 -5.5 -14t-15.5 -5h-238z" />
    <glyph glyph-name="Ibreve" unicode="&#x12c;" horiz-adv-x="234" 
d="M117 -6q-10 0 -15.5 6t-5.5 16v673q0 11 5.5 16.5t15.5 5.5t15.5 -5.5t5.5 -16.5v-673q0 -10 -5 -16t-16 -6zM117 760q-54 0 -98 36t-58 117q-1 9 4 14.5t12 5.5q4 0 7.5 -2t6 -5.5t3.5 -9.5q11 -67 46 -93.5t77 -26.5t77.5 26.5t45.5 93.5q1 6 3.5 9.5t6.5 5.5t7 2
q7 0 12.5 -5.5t3.5 -14.5q-14 -81 -58 -117t-98 -36z" />
    <glyph glyph-name="ibreve" unicode="&#x12d;" horiz-adv-x="212" 
d="M106 -3q-10 0 -15.5 6t-5.5 16v446q0 11 5.5 16.5t15.5 5.5t15.5 -5.5t5.5 -16.5v-446q0 -10 -5 -16t-16 -6zM106 547q-39 0 -69 20t-49 58.5t-25 94.5q-1 9 4.5 14.5t12.5 5.5q6 0 10.5 -4.5t5.5 -12.5q7 -70 35.5 -105t74.5 -35t75.5 35t34.5 105q1 8 5.5 12.5
t10.5 4.5q7 0 12.5 -5.5t4.5 -14.5q-5 -56 -24 -94.5t-49.5 -58.5t-69.5 -20z" />
    <glyph glyph-name="Iogonek" unicode="&#x12e;" horiz-adv-x="234" 
d="M121 -190q-41 0 -67.5 25t-26.5 67q0 34 19.5 66t55.5 54l-5 -14q-1 2 -1 5v4v672q0 11 5.5 16.5t15.5 5.5t15.5 -5.5t5.5 -16.5v-673q0 -7 -3 -12.5t-8 -8.5q-22 -13 -41.5 -35t-19.5 -54q0 -31 17.5 -45.5t42.5 -14.5q11 0 20.5 2t18.5 5q10 3 15.5 -0.5t7 -10.5
t-1.5 -13.5t-10 -9.5q-14 -5 -27.5 -7t-27.5 -2z" />
    <glyph glyph-name="iogonek" unicode="&#x12f;" horiz-adv-x="212" 
d="M110 -190q-41 0 -67.5 25t-26.5 67q0 35 21.5 68.5t59.5 55.5l-9 -21q-1 2 -2 6t-1 8v446q0 11 5.5 16.5t15.5 5.5t15.5 -5.5t5.5 -16.5v-446q0 -7 -3 -13t-8 -9q-32 -23 -46.5 -44t-14.5 -47q0 -31 17.5 -45.5t42.5 -14.5q11 0 20.5 2t18.5 5q10 3 15.5 -0.5t7 -10.5
t-1.5 -13.5t-10 -9.5q-14 -5 -27.5 -7t-27.5 -2zM106 616q-16 0 -25.5 9.5t-9.5 25.5q0 17 9.5 25.5t25.5 8.5q17 0 26 -8.5t9 -25.5q0 -16 -9 -25.5t-26 -9.5z" />
    <glyph glyph-name="Idotaccent" unicode="&#x130;" horiz-adv-x="234" 
d="M117 -6q-10 0 -15.5 6t-5.5 16v673q0 11 5.5 16.5t15.5 5.5t15.5 -5.5t5.5 -16.5v-673q0 -10 -5 -16t-16 -6zM117 815q-16 0 -25 9.5t-9 25.5q0 17 9 25.5t25 8.5q17 0 25.5 -8.5t8.5 -25.5q0 -16 -8.5 -25.5t-25.5 -9.5z" />
    <glyph glyph-name="dotlessi" unicode="&#x131;" horiz-adv-x="212" 
d="M106 -3q-10 0 -15.5 6t-5.5 16v446q0 11 5.5 16.5t15.5 5.5t15.5 -5.5t5.5 -16.5v-446q0 -10 -5 -16t-16 -6z" />
    <glyph glyph-name="IJ" unicode="&#x132;" horiz-adv-x="531" 
d="M117 -6q-10 0 -15.5 6t-5.5 16v673q0 11 5.5 16.5t15.5 5.5t15.5 -5.5t5.5 -16.5v-673q0 -10 -5 -16t-16 -6zM246 -5q-11 -1 -17 5.5t-6 14.5q0 6 4.5 11.5t14.5 6.5l33 3q56 5 87 43t31 100v510q0 11 5.5 16.5t15.5 5.5t15.5 -5.5t5.5 -16.5v-512q0 -53 -18 -91.5
t-53 -60.5t-86 -27z" />
    <glyph glyph-name="Jcircumflex" unicode="&#x134;" horiz-adv-x="297" 
d="M12 -5q-11 -1 -17 5.5t-6 14.5q0 6 4.5 11.5t14.5 6.5l33 3q56 5 87 43t31 100v510q0 11 5.5 16.5t15.5 5.5t15.5 -5.5t5.5 -16.5v-512q0 -53 -18 -91.5t-53 -60.5t-86 -27zM73 766q-6 -7 -12.5 -8t-11.5 2t-6 9t4 13l101 142q7 10 15 13.5t17 3.5t17 -3.5t15 -13.5
l101 -142q5 -7 4 -13t-6 -9t-11.5 -2t-12.5 8l-107 131z" />
    <glyph glyph-name="jcircumflex" unicode="&#x135;" horiz-adv-x="215" 
d="M-36 -192q-9 0 -14.5 3.5t-7.5 9.5t-1 11.5t6 9.5t14 4q64 2 95.5 32.5t31.5 99.5v490q0 11 5.5 16.5t15.5 5.5t15.5 -5.5t5.5 -16.5v-489q0 -58 -20.5 -96t-57.5 -56.5t-88 -18.5zM232 568q4 -8 2 -14t-7.5 -8.5t-11.5 -1t-10 7.5l-96 158l-96 -158q-4 -6 -10 -7.5
t-11.5 1t-7.5 8.5t2 14l93 170q6 11 13.5 15.5t16.5 4.5t16.5 -4.5t13.5 -15.5z" />
    <glyph glyph-name="uni0136" unicode="&#x136;" horiz-adv-x="590" 
d="M117 -6q-10 0 -15.5 6t-5.5 16v673q0 11 5.5 16.5t15.5 5.5t15.5 -5.5t5.5 -16.5v-312h2l359 319q10 8 18 11.5t16 3.5q10 0 15 -4t4 -10.5t-9 -13.5l-385 -341l2 32l401 -346q10 -8 11 -16t-4.5 -13t-15.5 -5q-8 0 -15 3.5t-15 10.5l-382 330h-2v-322q0 -10 -5 -16
t-16 -6zM305 -241q-7 -9 -14.5 -10.5t-12.5 2.5t-5.5 11.5t6.5 17.5q12 17 17.5 35.5t5.5 34.5l3 -9q-18 0 -29 11t-11 27q0 17 10 27.5t26 10.5q17 0 27.5 -12t10.5 -36q0 -17 -3.5 -37t-11 -39t-19.5 -34z" />
    <glyph glyph-name="uni0137" unicode="&#x137;" horiz-adv-x="468" 
d="M106 -6q-10 0 -15.5 6t-5.5 16v673q0 11 5.5 16.5t15.5 5.5t15.5 -5.5t5.5 -16.5v-429h2l241 215q8 7 15 11t17 4q8 0 13 -4.5t4.5 -11.5t-8.5 -15l-257 -228v36l279 -238q10 -8 11 -16t-3.5 -13.5t-12.5 -5.5q-9 0 -15.5 4t-17.5 13l-266 226h-2v-221q0 -22 -21 -22z
M237 -241q-7 -9 -14.5 -10.5t-12.5 2.5t-5.5 11.5t6.5 17.5q12 17 17.5 35.5t5.5 34.5l3 -9q-18 0 -29 11t-11 27q0 17 10 27.5t26 10.5q17 0 27.5 -12t10.5 -36q0 -17 -3.5 -37t-11 -39t-19.5 -34z" />
    <glyph glyph-name="kgreenlandic" unicode="&#x138;" horiz-adv-x="468" 
d="M106 -6q-10 0 -15.5 6t-5.5 16v452q0 11 5.5 16.5t15.5 5.5t15.5 -5.5t5.5 -16.5v-208h2l241 215q8 7 15 11t15 4q9 0 14 -4.5t5 -11.5t-8 -15l-257 -228v36l279 -238q10 -8 11 -16t-3.5 -13.5t-12.5 -5.5q-9 0 -15.5 4t-17.5 13l-266 226h-2v-221q0 -10 -5 -16t-16 -6z
" />
    <glyph glyph-name="Lacute" unicode="&#x139;" horiz-adv-x="527" 
d="M118 0q-10 0 -16 6t-6 16v667q0 11 5.5 16.5t15.5 5.5t15.5 -5.5t5.5 -16.5v-650h360q11 0 16.5 -5t5.5 -14q0 -10 -5.5 -15t-16.5 -5h-380zM138 768q-5 -6 -11.5 -7t-11.5 2t-6.5 9t3.5 13l99 143q6 9 13.5 11.5t14.5 0.5t11.5 -7t4.5 -12t-6 -15z" />
    <glyph glyph-name="lacute" unicode="&#x13a;" horiz-adv-x="275" 
d="M217 -8q-63 0 -97.5 40.5t-34.5 113.5v543q0 11 5.5 16.5t15.5 5.5t15.5 -5.5t5.5 -16.5v-536q0 -61 24 -91.5t70 -30.5q10 0 17 1t14 1q8 0 12.5 -3t4.5 -12q0 -11 -6 -16t-20 -8q-7 -1 -13.5 -1.5t-12.5 -0.5zM127 768q-5 -6 -11.5 -7t-11.5 2t-6.5 9t3.5 13l99 143
q6 9 13.5 11.5t14.5 0.5t11.5 -7t4.5 -12t-6 -15z" />
    <glyph glyph-name="uni013B" unicode="&#x13b;" horiz-adv-x="527" 
d="M118 0q-10 0 -16 6t-6 16v667q0 11 5.5 16.5t15.5 5.5t15.5 -5.5t5.5 -16.5v-650h360q11 0 16.5 -5t5.5 -14q0 -10 -5.5 -15t-16.5 -5h-380zM308 -241q-7 -9 -14.5 -10.5t-12.5 2.5t-5.5 11.5t6.5 17.5q12 17 17.5 35.5t5.5 34.5l3 -9q-18 0 -29 11t-11 27q0 17 10 27.5
t26 10.5q17 0 27.5 -12t10.5 -36q0 -17 -3.5 -37t-11 -39t-19.5 -34z" />
    <glyph glyph-name="uni013C" unicode="&#x13c;" horiz-adv-x="275" 
d="M217 -8q-63 0 -97.5 40.5t-34.5 113.5v543q0 11 5.5 16.5t15.5 5.5t15.5 -5.5t5.5 -16.5v-536q0 -61 24 -91.5t70 -30.5q10 0 17 1t14 1q8 0 12.5 -3t4.5 -12q0 -11 -6 -16t-20 -8q-7 -1 -13.5 -1.5t-12.5 -0.5zM184 -241q-7 -9 -14.5 -10.5t-12.5 2.5t-5.5 11.5
t6.5 17.5q12 17 17.5 35.5t5.5 34.5l3 -9q-18 0 -29 11t-11 27q0 17 10 27.5t26 10.5q17 0 27.5 -12t10.5 -36q0 -17 -3.5 -37t-11 -39t-19.5 -34z" />
    <glyph glyph-name="Lcaron" unicode="&#x13d;" horiz-adv-x="527" 
d="M118 0q-10 0 -16 6t-6 16v667q0 11 5.5 16.5t15.5 5.5t15.5 -5.5t5.5 -16.5v-650h360q11 0 16.5 -5t5.5 -14q0 -10 -5.5 -15t-16.5 -5h-380zM275 486q-7 0 -11 4.5t-4 11.5v184q0 12 6 18.5t18 6.5t18 -6.5t5 -19.5l-16 -184q-1 -15 -16 -15z" />
    <glyph glyph-name="lcaron" unicode="&#x13e;" horiz-adv-x="275" 
d="M217 -8q-63 0 -97.5 40.5t-34.5 113.5v543q0 11 5.5 16.5t15.5 5.5t15.5 -5.5t5.5 -16.5v-536q0 -61 24 -91.5t70 -30.5q10 0 17 1t14 1q8 0 12.5 -3t4.5 -12q0 -11 -6 -16t-20 -8q-7 -1 -13.5 -1.5t-12.5 -0.5zM191 514q-6 0 -10 3.5t-4 10.5v158q0 25 25 25q12 0 18 -7
t4 -19l-19 -158q-2 -13 -14 -13z" />
    <glyph glyph-name="Ldot" unicode="&#x13f;" horiz-adv-x="527" 
d="M118 0q-10 0 -16 6t-6 16v667q0 11 5.5 16.5t15.5 5.5t15.5 -5.5t5.5 -16.5v-650h360q11 0 16.5 -5t5.5 -14q0 -10 -5.5 -15t-16.5 -5h-380zM385 348q-16 0 -27 11t-11 27q0 17 11 27.5t27 10.5q17 0 27 -10.5t10 -27.5q0 -16 -10 -27t-27 -11z" />
    <glyph glyph-name="ldot" unicode="&#x140;" horiz-adv-x="275" 
d="M217 -8q-63 0 -97.5 40.5t-34.5 113.5v543q0 11 5.5 16.5t15.5 5.5t15.5 -5.5t5.5 -16.5v-536q0 -61 24 -91.5t70 -30.5q10 0 17 1t14 1q8 0 12.5 -3t4.5 -12q0 -11 -6 -16t-20 -8q-7 -1 -13.5 -1.5t-12.5 -0.5zM245 315q-16 0 -27 11t-11 27q0 17 11 27.5t27 10.5
q17 0 27 -10.5t10 -27.5q0 -16 -10 -27t-27 -11z" />
    <glyph glyph-name="Lslash" unicode="&#x141;" horiz-adv-x="527" 
d="M118 0q-10 0 -16 6t-6 16v667q0 11 5.5 16.5t15.5 5.5t15.5 -5.5t5.5 -16.5v-650h360q11 0 16.5 -5t5.5 -14q0 -10 -5.5 -15t-16.5 -5h-380zM22 286q-7 -4 -14 -3.5t-11.5 4.5t-5.5 10t2 12t11 11l296 170q8 4 14.5 3.5t11 -4.5t5.5 -10t-2 -12t-11 -11z" />
    <glyph glyph-name="lslash" unicode="&#x142;" horiz-adv-x="275" 
d="M217 -8q-63 0 -97.5 40.5t-34.5 113.5v543q0 11 5.5 16.5t15.5 5.5t15.5 -5.5t5.5 -16.5v-536q0 -61 24 -91.5t70 -30.5q10 0 17 1t14 1q8 0 12.5 -3t4.5 -12q0 -11 -6 -16t-20 -8q-7 -1 -13.5 -1.5t-12.5 -0.5zM24 281q-7 -4 -13.5 -3.5t-10.5 5t-5.5 10t1 12t10.5 10.5
l202 118q7 4 13.5 3.5t11 -5t5.5 -10t-1.5 -11.5t-10.5 -11z" />
    <glyph glyph-name="Nacute" unicode="&#x143;" horiz-adv-x="732" 
d="M116 -6q-9 0 -14.5 6t-5.5 16v672q0 11 5 17t13 6q9 0 13.5 -3t9.5 -11l482 -655h-22v647q0 11 5.5 16.5t14.5 5.5t14 -5.5t5 -16.5v-672q0 -11 -4.5 -17t-12.5 -6q-7 0 -12.5 3.5t-10.5 10.5l-482 655h21v-647q0 -10 -5 -16t-14 -6zM387 768q-5 -6 -11.5 -7t-11.5 2
t-6.5 9t3.5 13l99 143q6 9 13.5 11.5t14.5 0.5t11.5 -7t4.5 -12t-6 -15z" />
    <glyph glyph-name="nacute" unicode="&#x144;" horiz-adv-x="553" 
d="M106 -6q-10 0 -15.5 6t-5.5 16v452q0 11 5.5 16.5t15.5 5.5t15 -5.5t5 -16.5v-102h-11q20 63 69 94.5t113 31.5q58 0 96.5 -20t57.5 -61t19 -103v-292q0 -10 -5.5 -16t-15.5 -6t-15.5 6t-5.5 16v288q0 77 -31 113t-100 36q-77 0 -123.5 -47.5t-46.5 -127.5v-262
q0 -22 -21 -22zM297 552q-4 -6 -10 -7.5t-12 1t-8 8.5t2 14l91 175q5 10 12.5 13t14.5 1.5t12 -6.5t6 -12.5t-4 -15.5z" />
    <glyph glyph-name="uni0145" unicode="&#x145;" horiz-adv-x="732" 
d="M116 -6q-9 0 -14.5 6t-5.5 16v672q0 11 5 17t13 6q9 0 13.5 -3t9.5 -11l482 -655h-22v647q0 11 5.5 16.5t14.5 5.5t14 -5.5t5 -16.5v-672q0 -11 -4.5 -17t-12.5 -6q-7 0 -12.5 3.5t-10.5 10.5l-482 655h21v-647q0 -10 -5 -16t-14 -6zM369 -241q-7 -9 -14.5 -10.5
t-12.5 2.5t-5.5 11.5t6.5 17.5q12 17 17.5 35.5t5.5 34.5l3 -9q-18 0 -29 11t-11 27q0 17 10 27.5t26 10.5q17 0 27.5 -12t10.5 -36q0 -17 -3.5 -37t-11 -39t-19.5 -34z" />
    <glyph glyph-name="uni0146" unicode="&#x146;" horiz-adv-x="553" 
d="M106 -6q-10 0 -15.5 6t-5.5 16v452q0 11 5.5 16.5t15.5 5.5t15 -5.5t5 -16.5v-102h-11q20 63 69 94.5t113 31.5q58 0 96.5 -20t57.5 -61t19 -103v-292q0 -10 -5.5 -16t-15.5 -6t-15.5 6t-5.5 16v288q0 77 -31 113t-100 36q-77 0 -123.5 -47.5t-46.5 -127.5v-262
q0 -22 -21 -22zM280 -241q-7 -9 -14.5 -10.5t-12.5 2.5t-5.5 11.5t6.5 17.5q12 17 17.5 35.5t5.5 34.5l3 -9q-18 0 -29 11t-11 27q0 17 10 27.5t26 10.5q17 0 27.5 -12t10.5 -36q0 -17 -3.5 -37t-11 -39t-19.5 -34z" />
    <glyph glyph-name="Ncaron" unicode="&#x147;" horiz-adv-x="732" 
d="M116 -6q-9 0 -14.5 6t-5.5 16v672q0 11 5 17t13 6q9 0 13.5 -3t9.5 -11l482 -655h-22v647q0 11 5.5 16.5t14.5 5.5t14 -5.5t5 -16.5v-672q0 -11 -4.5 -17t-12.5 -6q-7 0 -12.5 3.5t-10.5 10.5l-482 655h21v-647q0 -10 -5 -16t-14 -6zM366 758q-9 0 -17 3.5t-15 13.5
l-101 142q-5 7 -4 13t6 9t11.5 2t12.5 -8l107 -131l107 131q6 7 12.5 8t11.5 -2t6 -9t-4 -13l-101 -142q-7 -10 -15 -13.5t-17 -3.5z" />
    <glyph glyph-name="ncaron" unicode="&#x148;" horiz-adv-x="553" 
d="M106 -6q-10 0 -15.5 6t-5.5 16v452q0 11 5.5 16.5t15.5 5.5t15 -5.5t5 -16.5v-102h-11q20 63 69 94.5t113 31.5q58 0 96.5 -20t57.5 -61t19 -103v-292q0 -10 -5.5 -16t-15.5 -6t-15.5 6t-5.5 16v288q0 77 -31 113t-100 36q-77 0 -123.5 -47.5t-46.5 -127.5v-262
q0 -22 -21 -22zM277 540q-9 0 -16.5 4.5t-13.5 15.5l-93 170q-4 8 -2 14t7.5 8.5t11.5 1t10 -7.5l96 -158l96 158q4 6 10 7.5t11.5 -1t7.5 -8.5t-2 -14l-93 -170q-6 -11 -13.5 -15.5t-16.5 -4.5z" />
    <glyph glyph-name="napostrophe" unicode="&#x149;" horiz-adv-x="553" 
d="M35 588q-7 -9 -14.5 -10.5t-12.5 2.5t-5.5 11.5t6.5 17.5q12 17 17.5 35.5t5.5 34.5l3 -9q-18 0 -29 11t-11 27q0 17 10 27.5t26 10.5q17 0 27.5 -12t10.5 -36q0 -17 -3.5 -37t-11 -39t-19.5 -34zM106 -6q-10 0 -15.5 6t-5.5 16v452q0 11 5.5 16.5t15.5 5.5t15 -5.5
t5 -16.5v-102h-11q20 63 69 94.5t113 31.5q58 0 96.5 -20t57.5 -61t19 -103v-292q0 -10 -5.5 -16t-15.5 -6t-15.5 6t-5.5 16v288q0 77 -31 113t-100 36q-77 0 -123.5 -47.5t-46.5 -127.5v-262q0 -22 -21 -22z" />
    <glyph glyph-name="Eng" unicode="&#x14a;" horiz-adv-x="732" 
d="M470 -192q-9 0 -14.5 3.5t-7.5 9.5t-1 11.5t6 9.5t14 4q64 2 97 32.5t33 99.5v47l5 -25l-488 663h21v-647q0 -10 -5 -16t-14 -6t-14.5 6t-5.5 16v672q0 11 5 17t13 6q9 0 13.5 -3t9.5 -11l482 -655h-22v647q0 11 5.5 16.5t14.5 5.5t14 -5.5t5 -16.5v-710
q0 -88 -45 -129.5t-121 -41.5z" />
    <glyph glyph-name="eng" unicode="&#x14b;" horiz-adv-x="553" 
d="M304 -192q-9 0 -14.5 3.5t-7.5 9.5t-1 11.5t6 9.5t14 4q64 2 95.5 32.5t31.5 99.5v326q0 77 -31 113t-100 36q-77 0 -123.5 -47.5t-46.5 -127.5v-262q0 -22 -21 -22q-10 0 -15.5 6t-5.5 16v452q0 11 5.5 16.5t15.5 5.5t15 -5.5t5 -16.5v-102h-11q20 63 69 94.5t113 31.5
q58 0 96.5 -20t57.5 -61t19 -103v-329q0 -58 -20.5 -96t-57.5 -56.5t-88 -18.5z" />
    <glyph glyph-name="Omacron" unicode="&#x14c;" horiz-adv-x="751" 
d="M375 -8q-95 0 -164 44t-106.5 125t-37.5 192q0 84 21 150.5t61 113t97 71.5t129 25q96 0 165.5 -43.5t106.5 -124t37 -191.5q0 -84 -21.5 -151t-61.5 -114t-97 -72t-129 -25zM375 33q84 0 143 37.5t90 109t31 173.5q0 152 -68.5 235.5t-195.5 83.5q-83 0 -142 -37.5
t-90 -109t-31 -172.5q0 -151 69 -235.5t194 -84.5zM241 822q-21 0 -21 19q0 9 5.5 14t15.5 5h268q21 0 21 -19q0 -9 -5.5 -14t-15.5 -5h-268z" />
    <glyph glyph-name="omacron" unicode="&#x14d;" horiz-adv-x="538" 
d="M269 -8q-66 0 -114.5 31t-75 87t-26.5 132q0 57 15 103t43.5 79t68.5 50.5t89 17.5q66 0 114.5 -31t75 -87t26.5 -132q0 -57 -15 -103t-43.5 -79t-68 -50.5t-89.5 -17.5zM269 31q53 0 92 25t60 72.5t21 113.5q0 100 -46.5 155.5t-126.5 55.5q-53 0 -92 -25t-60 -72
t-21 -114q0 -100 47 -155.5t126 -55.5zM150 633q-21 0 -21 19q0 9 5.5 14t15.5 5h238q21 0 21 -19q0 -9 -5.5 -14t-15.5 -5h-238z" />
    <glyph glyph-name="Obreve" unicode="&#x14e;" horiz-adv-x="751" 
d="M375 -8q-95 0 -164 44t-106.5 125t-37.5 192q0 84 21 150.5t61 113t97 71.5t129 25q96 0 165.5 -43.5t106.5 -124t37 -191.5q0 -84 -21.5 -151t-61.5 -114t-97 -72t-129 -25zM375 33q84 0 143 37.5t90 109t31 173.5q0 152 -68.5 235.5t-195.5 83.5q-83 0 -142 -37.5
t-90 -109t-31 -172.5q0 -151 69 -235.5t194 -84.5zM375 760q-54 0 -98 36t-58 117q-1 9 4 14.5t12 5.5q4 0 7.5 -2t6 -5.5t3.5 -9.5q11 -67 46 -93.5t77 -26.5t77.5 26.5t45.5 93.5q1 6 3.5 9.5t6.5 5.5t7 2q7 0 12.5 -5.5t3.5 -14.5q-14 -81 -58 -117t-98 -36z" />
    <glyph glyph-name="obreve" unicode="&#x14f;" horiz-adv-x="538" 
d="M269 -8q-66 0 -114.5 31t-75 87t-26.5 132q0 57 15 103t43.5 79t68.5 50.5t89 17.5q66 0 114.5 -31t75 -87t26.5 -132q0 -57 -15 -103t-43.5 -79t-68 -50.5t-89.5 -17.5zM269 31q53 0 92 25t60 72.5t21 113.5q0 100 -46.5 155.5t-126.5 55.5q-53 0 -92 -25t-60 -72
t-21 -114q0 -100 47 -155.5t126 -55.5zM269 547q-39 0 -69 20t-49 58.5t-25 94.5q-1 9 4.5 14.5t12.5 5.5q6 0 10.5 -4.5t5.5 -12.5q7 -70 35.5 -105t74.5 -35t75.5 35t34.5 105q1 8 5.5 12.5t10.5 4.5q7 0 12.5 -5.5t4.5 -14.5q-5 -56 -24 -94.5t-49.5 -58.5t-69.5 -20z
" />
    <glyph glyph-name="Ohungarumlaut" unicode="&#x150;" horiz-adv-x="751" 
d="M375 -8q-95 0 -164 44t-106.5 125t-37.5 192q0 84 21 150.5t61 113t97 71.5t129 25q96 0 165.5 -43.5t106.5 -124t37 -191.5q0 -84 -21.5 -151t-61.5 -114t-97 -72t-129 -25zM375 33q84 0 143 37.5t90 109t31 173.5q0 152 -68.5 235.5t-195.5 83.5q-83 0 -142 -37.5
t-90 -109t-31 -172.5q0 -151 69 -235.5t194 -84.5zM335 766q-4 -6 -9 -7.5t-9.5 0.5t-5.5 7t2 11l75 148q5 10 12 13.5t14 2t11.5 -6t5.5 -12t-5 -16.5zM443 766q-4 -6 -9 -7.5t-9.5 0.5t-5.5 7t2 11l75 148q5 10 12 13.5t14 2t11.5 -6t5.5 -12t-5 -16.5z" />
    <glyph glyph-name="ohungarumlaut" unicode="&#x151;" horiz-adv-x="538" 
d="M269 -8q-66 0 -114.5 31t-75 87t-26.5 132q0 57 15 103t43.5 79t68.5 50.5t89 17.5q66 0 114.5 -31t75 -87t26.5 -132q0 -57 -15 -103t-43.5 -79t-68 -50.5t-89.5 -17.5zM269 31q53 0 92 25t60 72.5t21 113.5q0 100 -46.5 155.5t-126.5 55.5q-53 0 -92 -25t-60 -72
t-21 -114q0 -100 47 -155.5t126 -55.5zM339 553q-2 -6 -7 -8t-10 -0.5t-8 5.5t-1 11l51 175q3 11 9.5 16t14 5.5t13.5 -3t8.5 -10t-1.5 -15.5zM230 553q-2 -6 -7 -8t-10 -0.5t-8 5.5t-1 11l51 175q3 11 9.5 16t14 5.5t13.5 -3t8.5 -10t-1.5 -15.5z" />
    <glyph glyph-name="OE" unicode="&#x152;" horiz-adv-x="1038" 
d="M412 0q-166 0 -255.5 90.5t-89.5 262.5q0 86 23 152t67 110.5t108 67t147 22.5h561q10 0 15.5 -5t5.5 -14q0 -10 -5.5 -15t-15.5 -5h-367v-289h347q10 0 15.5 -5t5.5 -14q0 -10 -5.5 -15t-15.5 -5h-347v-299h367q10 0 15.5 -5t5.5 -14q0 -10 -5.5 -15t-15.5 -5h-561z
M416 39h148v627h-148q-76 0 -133 -19.5t-95 -59t-57 -98t-19 -136.5q0 -156 76 -235t228 -79z" />
    <glyph glyph-name="oe" unicode="&#x153;" horiz-adv-x="906" 
d="M269 -8q-66 0 -114.5 31t-75 87t-26.5 132q0 57 15 103t43.5 79t68.5 50.5t89 17.5q78 0 131.5 -45.5t72.5 -125.5h-19q20 81 76 126t135 45q60 0 103.5 -28t66.5 -79.5t23 -124.5q0 -13 -5.5 -19.5t-16.5 -6.5h-370v37h369l-16 -9q0 59 -18 102t-53 66.5t-87 23.5
q-56 0 -95 -27.5t-59.5 -74.5t-20.5 -106v-6q0 -98 47.5 -153.5t137.5 -55.5q37 0 71.5 10.5t68.5 37.5q7 6 14.5 6.5t13 -3t8 -9t0.5 -12.5t-10 -13q-32 -25 -76 -40.5t-88 -15.5q-87 0 -144 43t-76 125h18q-19 -79 -72 -123.5t-130 -44.5zM269 31q53 0 92 25t60 72.5
t21 113.5q0 100 -46.5 155.5t-126.5 55.5q-53 0 -92 -25t-60 -72t-21 -114q0 -100 47 -155.5t126 -55.5z" />
    <glyph glyph-name="Racute" unicode="&#x154;" horiz-adv-x="654" 
d="M117 -6q-10 0 -15.5 6t-5.5 16v667q0 11 6 16.5t16 5.5h233q111 0 170 -51t59 -146q0 -61 -27 -104.5t-78.5 -66t-123.5 -22.5l11 12h8q38 0 65.5 -20t51.5 -65l115 -214q5 -8 4.5 -16t-5 -13t-11.5 -5q-9 0 -14.5 4.5t-9.5 11.5l-116 216q-28 52 -62 69t-93 17h-157
v-296q0 -10 -5 -16t-16 -6zM138 351h209q95 0 142 40t47 118q0 77 -47 117t-142 40h-209v-315zM355 768q-5 -6 -11.5 -7t-11.5 2t-6.5 9t3.5 13l99 143q6 9 13.5 11.5t14.5 0.5t11.5 -7t4.5 -12t-6 -15z" />
    <glyph glyph-name="racute" unicode="&#x155;" horiz-adv-x="327" 
d="M106 -6q-10 0 -15.5 6t-5.5 16v452q0 11 5.5 16.5t15.5 5.5t15 -5.5t5 -16.5v-97h-10q19 59 67.5 91t112.5 32q9 0 15.5 -3.5t6.5 -13.5t-5 -15.5t-17 -6.5l-12 -1q-74 -7 -115.5 -50t-41.5 -114v-274q0 -10 -5 -16t-16 -6zM224 552q-4 -6 -10 -7.5t-12 1t-8 8.5t2 14
l91 175q5 10 12.5 13t14.5 1.5t12 -6.5t6 -12.5t-4 -15.5z" />
    <glyph glyph-name="uni0156" unicode="&#x156;" horiz-adv-x="654" 
d="M117 -6q-10 0 -15.5 6t-5.5 16v667q0 11 6 16.5t16 5.5h233q111 0 170 -51t59 -146q0 -61 -27 -104.5t-78.5 -66t-123.5 -22.5l11 12h8q38 0 65.5 -20t51.5 -65l115 -214q5 -8 4.5 -16t-5 -13t-11.5 -5q-9 0 -14.5 4.5t-9.5 11.5l-116 216q-28 52 -62 69t-93 17h-157
v-296q0 -10 -5 -16t-16 -6zM138 351h209q95 0 142 40t47 118q0 77 -47 117t-142 40h-209v-315zM337 -241q-7 -9 -14.5 -10.5t-12.5 2.5t-5.5 11.5t6.5 17.5q12 17 17.5 35.5t5.5 34.5l3 -9q-18 0 -29 11t-11 27q0 17 10 27.5t26 10.5q17 0 27.5 -12t10.5 -36q0 -17 -3.5 -37
t-11 -39t-19.5 -34z" />
    <glyph glyph-name="uni0157" unicode="&#x157;" horiz-adv-x="327" 
d="M106 -6q-10 0 -15.5 6t-5.5 16v452q0 11 5.5 16.5t15.5 5.5t15 -5.5t5 -16.5v-97h-10q19 59 67.5 91t112.5 32q9 0 15.5 -3.5t6.5 -13.5t-5 -15.5t-17 -6.5l-12 -1q-74 -7 -115.5 -50t-41.5 -114v-274q0 -10 -5 -16t-16 -6zM109 -241q-7 -9 -14.5 -10.5t-12.5 2.5
t-5.5 11.5t6.5 17.5q12 17 17.5 35.5t5.5 34.5l3 -9q-18 0 -29 11t-11 27q0 17 10 27.5t26 10.5q17 0 27.5 -12t10.5 -36q0 -17 -3.5 -37t-11 -39t-19.5 -34z" />
    <glyph glyph-name="Rcaron" unicode="&#x158;" horiz-adv-x="654" 
d="M117 -6q-10 0 -15.5 6t-5.5 16v667q0 11 6 16.5t16 5.5h233q111 0 170 -51t59 -146q0 -61 -27 -104.5t-78.5 -66t-123.5 -22.5l11 12h8q38 0 65.5 -20t51.5 -65l115 -214q5 -8 4.5 -16t-5 -13t-11.5 -5q-9 0 -14.5 4.5t-9.5 11.5l-116 216q-28 52 -62 69t-93 17h-157
v-296q0 -10 -5 -16t-16 -6zM138 351h209q95 0 142 40t47 118q0 77 -47 117t-142 40h-209v-315zM334 758q-9 0 -17 3.5t-15 13.5l-101 142q-5 7 -4 13t6 9t11.5 2t12.5 -8l107 -131l107 131q6 7 12.5 8t11.5 -2t6 -9t-4 -13l-101 -142q-7 -10 -15 -13.5t-17 -3.5z" />
    <glyph glyph-name="rcaron" unicode="&#x159;" horiz-adv-x="327" 
d="M106 -6q-10 0 -15.5 6t-5.5 16v452q0 11 5.5 16.5t15.5 5.5t15 -5.5t5 -16.5v-97h-10q19 59 67.5 91t112.5 32q9 0 15.5 -3.5t6.5 -13.5t-5 -15.5t-17 -6.5l-12 -1q-74 -7 -115.5 -50t-41.5 -114v-274q0 -10 -5 -16t-16 -6zM204 540q-9 0 -16.5 4.5t-13.5 15.5l-93 170
q-4 8 -2 14t7.5 8.5t11.5 1t10 -7.5l96 -158l96 158q4 6 10 7.5t11.5 -1t7.5 -8.5t-2 -14l-93 -170q-6 -11 -13.5 -15.5t-16.5 -4.5z" />
    <glyph glyph-name="Sacute" unicode="&#x15a;" horiz-adv-x="600" 
d="M310 -8q-50 0 -95 9t-83.5 26t-69.5 42q-7 6 -9.5 13t0 13.5t7.5 10.5t12 4t14 -6q47 -37 99.5 -54t124.5 -17q100 0 150.5 40t50.5 106q0 54 -37 84.5t-121 47.5l-99 20q-94 19 -140 63t-46 119q0 45 17.5 81.5t49.5 63t76 41t97 14.5q66 0 121 -19.5t100 -60.5
q7 -6 9 -13.5t-0.5 -14t-7 -10t-11.5 -3.5t-14 7q-43 38 -91 55.5t-106 17.5q-59 0 -103 -19.5t-68.5 -55.5t-24.5 -84q0 -58 34 -91.5t110 -48.5l99 -20q102 -21 151 -61.5t49 -111.5q0 -42 -17 -76.5t-48.5 -59.5t-77 -38.5t-102.5 -13.5zM325 768q-5 -6 -11.5 -7t-11.5 2
t-6.5 9t3.5 13l99 143q6 9 13.5 11.5t14.5 0.5t11.5 -7t4.5 -12t-6 -15z" />
    <glyph glyph-name="sacute" unicode="&#x15b;" horiz-adv-x="475" 
d="M236 -8q-46 0 -89 13t-84 44q-5 4 -6.5 10t0 12t6 10.5t11 4.5t13.5 -5q38 -28 76 -39t76 -11q65 0 99.5 25t34.5 68q0 34 -22.5 53.5t-72.5 31.5l-83 20q-63 15 -92.5 46t-29.5 80q0 41 21.5 72t61 48t91.5 17q44 0 84.5 -14t68.5 -42q6 -6 7.5 -12.5t-0.5 -12.5t-7 -9
t-11.5 -2.5t-13.5 6.5q-28 24 -61 35.5t-68 11.5q-61 0 -95 -26.5t-34 -70.5q0 -34 21 -55t67 -32l83 -20q65 -16 97 -45t32 -78q0 -61 -49 -97.5t-132 -36.5zM266 552q-4 -6 -10 -7.5t-12 1t-8 8.5t2 14l91 175q5 10 12.5 13t14.5 1.5t12 -6.5t6 -12.5t-4 -15.5z" />
    <glyph glyph-name="Scircumflex" unicode="&#x15c;" horiz-adv-x="600" 
d="M310 -8q-50 0 -95 9t-83.5 26t-69.5 42q-7 6 -9.5 13t0 13.5t7.5 10.5t12 4t14 -6q47 -37 99.5 -54t124.5 -17q100 0 150.5 40t50.5 106q0 54 -37 84.5t-121 47.5l-99 20q-94 19 -140 63t-46 119q0 45 17.5 81.5t49.5 63t76 41t97 14.5q66 0 121 -19.5t100 -60.5
q7 -6 9 -13.5t-0.5 -14t-7 -10t-11.5 -3.5t-14 7q-43 38 -91 55.5t-106 17.5q-59 0 -103 -19.5t-68.5 -55.5t-24.5 -84q0 -58 34 -91.5t110 -48.5l99 -20q102 -21 151 -61.5t49 -111.5q0 -42 -17 -76.5t-48.5 -59.5t-77 -38.5t-102.5 -13.5zM197 766q-6 -7 -12.5 -8t-11.5 2
t-6 9t4 13l101 142q7 10 15 13.5t17 3.5t17 -3.5t15 -13.5l101 -142q5 -7 4 -13t-6 -9t-11.5 -2t-12.5 8l-107 131z" />
    <glyph glyph-name="scircumflex" unicode="&#x15d;" horiz-adv-x="475" 
d="M236 -8q-46 0 -89 13t-84 44q-5 4 -6.5 10t0 12t6 10.5t11 4.5t13.5 -5q38 -28 76 -39t76 -11q65 0 99.5 25t34.5 68q0 34 -22.5 53.5t-72.5 31.5l-83 20q-63 15 -92.5 46t-29.5 80q0 41 21.5 72t61 48t91.5 17q44 0 84.5 -14t68.5 -42q6 -6 7.5 -12.5t-0.5 -12.5t-7 -9
t-11.5 -2.5t-13.5 6.5q-28 24 -61 35.5t-68 11.5q-61 0 -95 -26.5t-34 -70.5q0 -34 21 -55t67 -32l83 -20q65 -16 97 -45t32 -78q0 -61 -49 -97.5t-132 -36.5zM369 568q4 -8 2 -14t-7.5 -8.5t-11.5 -1t-10 7.5l-96 158l-96 -158q-4 -6 -10 -7.5t-11.5 1t-7.5 8.5t2 14
l93 170q6 11 13.5 15.5t16.5 4.5t16.5 -4.5t13.5 -15.5z" />
    <glyph glyph-name="Scedilla" unicode="&#x15e;" horiz-adv-x="600" 
d="M310 -8q-50 0 -95 9t-83.5 26t-69.5 42q-7 6 -9.5 13t0 13.5t7.5 10.5t12 4t14 -6q47 -37 99.5 -54t124.5 -17q100 0 150.5 40t50.5 106q0 54 -37 84.5t-121 47.5l-99 20q-94 19 -140 63t-46 119q0 45 17.5 81.5t49.5 63t76 41t97 14.5q66 0 121 -19.5t100 -60.5
q7 -6 9 -13.5t-0.5 -14t-7 -10t-11.5 -3.5t-14 7q-43 38 -91 55.5t-106 17.5q-59 0 -103 -19.5t-68.5 -55.5t-24.5 -84q0 -58 34 -91.5t110 -48.5l99 -20q102 -21 151 -61.5t49 -111.5q0 -42 -17 -76.5t-48.5 -59.5t-77 -38.5t-102.5 -13.5zM315 -190q-17 0 -35.5 3
t-32.5 10q-8 4 -10.5 11t0 13.5t8.5 9.5t15 -1q11 -5 25.5 -7.5t33.5 -2.5q27 0 44.5 11t17.5 32q0 15 -9.5 23.5t-29.5 8.5q-8 0 -16 -1t-19 -4q-10 -3 -15 -3.5t-10 2.5q-4 3 -4.5 8.5t0.5 14.5l13 82h38l-13 -75l-18 2q12 3 23.5 5t21.5 2q32 0 55 -17t23 -48
q0 -35 -29.5 -57t-76.5 -22z" />
    <glyph glyph-name="scedilla" unicode="&#x15f;" horiz-adv-x="475" 
d="M236 -8q-46 0 -89 13t-84 44q-5 4 -6.5 10t0 12t6 10.5t11 4.5t13.5 -5q38 -28 76 -39t76 -11q65 0 99.5 25t34.5 68q0 34 -22.5 53.5t-72.5 31.5l-83 20q-63 15 -92.5 46t-29.5 80q0 41 21.5 72t61 48t91.5 17q44 0 84.5 -14t68.5 -42q6 -6 7.5 -12.5t-0.5 -12.5t-7 -9
t-11.5 -2.5t-13.5 6.5q-28 24 -61 35.5t-68 11.5q-61 0 -95 -26.5t-34 -70.5q0 -34 21 -55t67 -32l83 -20q65 -16 97 -45t32 -78q0 -61 -49 -97.5t-132 -36.5zM241 -190q-17 0 -35.5 3t-32.5 10q-8 4 -10.5 11t0 13.5t8.5 9.5t15 -1q11 -5 25.5 -7.5t33.5 -2.5q27 0 44.5 11
t17.5 32q0 15 -9.5 23.5t-29.5 8.5q-8 0 -16 -1t-19 -4q-10 -3 -15 -3.5t-10 2.5q-4 3 -4.5 8.5t0.5 14.5l13 82h38l-13 -75l-18 2q12 3 23.5 5t21.5 2q32 0 55 -17t23 -48q0 -35 -29.5 -57t-76.5 -22z" />
    <glyph glyph-name="Scaron" unicode="&#x160;" horiz-adv-x="600" 
d="M310 -8q-50 0 -95 9t-83.5 26t-69.5 42q-7 6 -9.5 13t0 13.5t7.5 10.5t12 4t14 -6q47 -37 99.5 -54t124.5 -17q100 0 150.5 40t50.5 106q0 54 -37 84.5t-121 47.5l-99 20q-94 19 -140 63t-46 119q0 45 17.5 81.5t49.5 63t76 41t97 14.5q66 0 121 -19.5t100 -60.5
q7 -6 9 -13.5t-0.5 -14t-7 -10t-11.5 -3.5t-14 7q-43 38 -91 55.5t-106 17.5q-59 0 -103 -19.5t-68.5 -55.5t-24.5 -84q0 -58 34 -91.5t110 -48.5l99 -20q102 -21 151 -61.5t49 -111.5q0 -42 -17 -76.5t-48.5 -59.5t-77 -38.5t-102.5 -13.5zM304 758q-9 0 -17 3.5t-15 13.5
l-101 142q-5 7 -4 13t6 9t11.5 2t12.5 -8l107 -131l107 131q6 7 12.5 8t11.5 -2t6 -9t-4 -13l-101 -142q-7 -10 -15 -13.5t-17 -3.5z" />
    <glyph glyph-name="scaron" unicode="&#x161;" horiz-adv-x="475" 
d="M236 -8q-46 0 -89 13t-84 44q-5 4 -6.5 10t0 12t6 10.5t11 4.5t13.5 -5q38 -28 76 -39t76 -11q65 0 99.5 25t34.5 68q0 34 -22.5 53.5t-72.5 31.5l-83 20q-63 15 -92.5 46t-29.5 80q0 41 21.5 72t61 48t91.5 17q44 0 84.5 -14t68.5 -42q6 -6 7.5 -12.5t-0.5 -12.5t-7 -9
t-11.5 -2.5t-13.5 6.5q-28 24 -61 35.5t-68 11.5q-61 0 -95 -26.5t-34 -70.5q0 -34 21 -55t67 -32l83 -20q65 -16 97 -45t32 -78q0 -61 -49 -97.5t-132 -36.5zM246 540q-9 0 -16.5 4.5t-13.5 15.5l-93 170q-4 8 -2 14t7.5 8.5t11.5 1t10 -7.5l96 -158l96 158q4 6 10 7.5
t11.5 -1t7.5 -8.5t-2 -14l-93 -170q-6 -11 -13.5 -15.5t-16.5 -4.5z" />
    <glyph glyph-name="uni0162" unicode="&#x162;" horiz-adv-x="586" 
d="M293 -6q-10 0 -15.5 6t-5.5 16v650h-253q-10 0 -16 5.5t-6 14.5t6 14t16 5h548q11 0 16.5 -5t5.5 -14q0 -10 -5.5 -15t-16.5 -5h-253v-650q0 -10 -5 -16t-16 -6zM298 -190q-17 0 -35.5 3t-32.5 10q-8 4 -10.5 11t0 13.5t8.5 9.5t15 -1q11 -5 25.5 -7.5t33.5 -2.5
q27 0 44.5 11t17.5 32q0 15 -9.5 23.5t-29.5 8.5q-8 0 -16 -1t-19 -4q-10 -3 -15 -3.5t-10 2.5q-4 3 -4.5 8.5t0.5 14.5l13 82h38l-13 -75l-18 2q12 3 23.5 5t21.5 2q32 0 55 -17t23 -48q0 -35 -29.5 -57t-76.5 -22z" />
    <glyph glyph-name="uni0163" unicode="&#x163;" horiz-adv-x="320" 
d="M255 -8q-50 0 -84 19.5t-51 56t-17 88.5v292h-81q-10 0 -16 5t-6 13t6 13t16 5h81v135q0 11 5.5 16.5t15.5 5.5t15.5 -5.5t5.5 -16.5v-135h143q11 0 16.5 -5t5.5 -13t-5.5 -13t-16.5 -5h-143v-283q0 -65 26 -99.5t87 -34.5q21 0 34.5 4.5t22.5 4.5q6 0 10.5 -5t4.5 -14
q0 -5 -2.5 -10.5t-9.5 -7.5q-10 -4 -28.5 -7.5t-34.5 -3.5zM208 -190q-17 0 -35.5 3t-32.5 10q-8 4 -10.5 11t0 13.5t8.5 9.5t15 -1q11 -5 25.5 -7.5t33.5 -2.5q27 0 44.5 11t17.5 32q0 15 -9.5 23.5t-29.5 8.5q-8 0 -16 -1t-19 -4q-10 -3 -15 -3.5t-10 2.5q-4 3 -4.5 8.5
t0.5 14.5l13 82h38l-13 -75l-18 2q12 3 23.5 5t21.5 2q32 0 55 -17t23 -48q0 -35 -29.5 -57t-76.5 -22z" />
    <glyph glyph-name="Tcaron" unicode="&#x164;" horiz-adv-x="586" 
d="M293 -6q-10 0 -15.5 6t-5.5 16v650h-253q-10 0 -16 5.5t-6 14.5t6 14t16 5h548q11 0 16.5 -5t5.5 -14q0 -10 -5.5 -15t-16.5 -5h-253v-650q0 -10 -5 -16t-16 -6zM293 758q-9 0 -17 3.5t-15 13.5l-101 142q-5 7 -4 13t6 9t11.5 2t12.5 -8l107 -131l107 131q6 7 12.5 8
t11.5 -2t6 -9t-4 -13l-101 -142q-7 -10 -15 -13.5t-17 -3.5z" />
    <glyph glyph-name="tcaron" unicode="&#x165;" horiz-adv-x="320" 
d="M255 -8q-50 0 -84 19.5t-51 56t-17 88.5v292h-81q-10 0 -16 5t-6 13t6 13t16 5h81v135q0 11 5.5 16.5t15.5 5.5t15.5 -5.5t5.5 -16.5v-135h143q11 0 16.5 -5t5.5 -13t-5.5 -13t-16.5 -5h-143v-283q0 -65 26 -99.5t87 -34.5q21 0 34.5 4.5t22.5 4.5q6 0 10.5 -5t4.5 -14
q0 -5 -2.5 -10.5t-9.5 -7.5q-10 -4 -28.5 -7.5t-34.5 -3.5zM239 528q-6 0 -10 3.5t-4 10.5v144q0 25 25 25q11 0 17 -7t4 -19l-18 -144q-1 -6 -4 -9.5t-10 -3.5z" />
    <glyph glyph-name="Tbar" unicode="&#x166;" horiz-adv-x="586" 
d="M293 -6q-10 0 -15.5 6t-5.5 16v650h-253q-10 0 -16 5.5t-6 14.5t6 14t16 5h548q11 0 16.5 -5t5.5 -14q0 -10 -5.5 -15t-16.5 -5h-253v-650q0 -10 -5 -16t-16 -6zM139 340q-10 0 -15 5t-5 14q0 8 5 13t15 5h307q10 0 15 -4.5t5 -13.5t-5 -14t-15 -5h-307z" />
    <glyph glyph-name="tbar" unicode="&#x167;" horiz-adv-x="320" 
d="M255 -8q-50 0 -84 19.5t-51 56t-17 88.5v292h-81q-10 0 -16 5t-6 13t6 13t16 5h81v135q0 11 5.5 16.5t15.5 5.5t15.5 -5.5t5.5 -16.5v-135h143q11 0 16.5 -5t5.5 -13t-5.5 -13t-16.5 -5h-143v-283q0 -65 26 -99.5t87 -34.5q21 0 34.5 4.5t22.5 4.5q6 0 10.5 -5t4.5 -14
q0 -5 -2.5 -10.5t-9.5 -7.5q-10 -4 -28.5 -7.5t-34.5 -3.5zM42 253q-10 0 -15 5t-5 13t5 13t15 5h218q20 0 20 -18q0 -8 -5 -13t-15 -5h-218z" />
    <glyph glyph-name="Utilde" unicode="&#x168;" horiz-adv-x="720" 
d="M360 -8q-66 0 -116.5 18t-84 53.5t-51 87.5t-17.5 120v418q0 11 5.5 16.5t15.5 5.5t15.5 -5.5t5.5 -16.5v-412q0 -123 57.5 -183.5t169.5 -60.5q113 0 170 60.5t57 183.5v412q0 11 5.5 16.5t15.5 5.5t15.5 -5.5t5.5 -16.5v-418q0 -90 -30.5 -152.5t-90.5 -94.5t-148 -32z
M181 789q-7 0 -11.5 5t-3.5 15q8 50 36.5 78t68.5 28q27 0 51 -13t46.5 -29.5t43 -29.5t40.5 -13q27 0 45.5 20t24.5 55q2 8 6.5 11.5t10.5 3.5q7 0 12 -5t3 -15q-8 -49 -36 -77.5t-68 -28.5q-27 0 -51.5 13t-46.5 29.5t-43 29.5t-41 13q-27 0 -45.5 -20t-24.5 -55
q-1 -7 -6 -11t-11 -4z" />
    <glyph glyph-name="utilde" unicode="&#x169;" horiz-adv-x="545" 
d="M254 -8q-57 0 -95 21t-57 62t-19 102v291q0 11 5.5 16.5t15.5 5.5t15.5 -5.5t5.5 -16.5v-287q0 -76 31 -113t98 -37q73 0 118.5 48.5t45.5 127.5v261q0 11 5.5 16.5t15.5 5.5t15.5 -5.5t5.5 -16.5v-452q0 -22 -20 -22q-10 0 -15.5 6t-5.5 16v105h12q-19 -63 -67 -96
t-110 -33zM122 593q-7 0 -11.5 5t-3.5 15q4 26 12 45.5t20 33t27.5 20.5t34.5 7q24 0 42.5 -13t35 -29.5t32.5 -29.5t34 -13q24 0 39.5 19.5t22.5 55.5q2 8 6.5 11.5t10.5 3.5q7 0 12 -5t3 -15q-5 -34 -18 -57.5t-32 -36t-44 -12.5q-24 0 -42.5 13t-35 29.5t-32.5 29.5
t-34 13q-24 0 -39.5 -19.5t-22.5 -55.5q-1 -7 -6 -11t-11 -4z" />
    <glyph glyph-name="Umacron" unicode="&#x16a;" horiz-adv-x="720" 
d="M360 -8q-66 0 -116.5 18t-84 53.5t-51 87.5t-17.5 120v418q0 11 5.5 16.5t15.5 5.5t15.5 -5.5t5.5 -16.5v-412q0 -123 57.5 -183.5t169.5 -60.5q113 0 170 60.5t57 183.5v412q0 11 5.5 16.5t15.5 5.5t15.5 -5.5t5.5 -16.5v-418q0 -90 -30.5 -152.5t-90.5 -94.5t-148 -32z
M226 822q-21 0 -21 19q0 9 5.5 14t15.5 5h268q21 0 21 -19q0 -9 -5.5 -14t-15.5 -5h-268z" />
    <glyph glyph-name="umacron" unicode="&#x16b;" horiz-adv-x="545" 
d="M254 -8q-57 0 -95 21t-57 62t-19 102v291q0 11 5.5 16.5t15.5 5.5t15.5 -5.5t5.5 -16.5v-287q0 -76 31 -113t98 -37q73 0 118.5 48.5t45.5 127.5v261q0 11 5.5 16.5t15.5 5.5t15.5 -5.5t5.5 -16.5v-452q0 -22 -20 -22q-10 0 -15.5 6t-5.5 16v105h12q-19 -63 -67 -96
t-110 -33zM154 634q-21 0 -21 19q0 9 5.5 14t15.5 5h238q21 0 21 -19q0 -9 -5.5 -14t-15.5 -5h-238z" />
    <glyph glyph-name="Ubreve" unicode="&#x16c;" horiz-adv-x="720" 
d="M360 -8q-66 0 -116.5 18t-84 53.5t-51 87.5t-17.5 120v418q0 11 5.5 16.5t15.5 5.5t15.5 -5.5t5.5 -16.5v-412q0 -123 57.5 -183.5t169.5 -60.5q113 0 170 60.5t57 183.5v412q0 11 5.5 16.5t15.5 5.5t15.5 -5.5t5.5 -16.5v-418q0 -90 -30.5 -152.5t-90.5 -94.5t-148 -32z
M360 760q-54 0 -98 36t-58 117q-1 9 4 14.5t12 5.5q4 0 7.5 -2t6 -5.5t3.5 -9.5q11 -67 46 -93.5t77 -26.5t77.5 26.5t45.5 93.5q1 6 3.5 9.5t6.5 5.5t7 2q7 0 12.5 -5.5t3.5 -14.5q-14 -81 -58 -117t-98 -36z" />
    <glyph glyph-name="ubreve" unicode="&#x16d;" horiz-adv-x="545" 
d="M254 -8q-57 0 -95 21t-57 62t-19 102v291q0 11 5.5 16.5t15.5 5.5t15.5 -5.5t5.5 -16.5v-287q0 -76 31 -113t98 -37q73 0 118.5 48.5t45.5 127.5v261q0 11 5.5 16.5t15.5 5.5t15.5 -5.5t5.5 -16.5v-452q0 -22 -20 -22q-10 0 -15.5 6t-5.5 16v105h12q-19 -63 -67 -96
t-110 -33zM273 548q-39 0 -69 20t-49 58.5t-25 94.5q-1 9 4.5 14.5t12.5 5.5q6 0 10.5 -4.5t5.5 -12.5q7 -70 35.5 -105t74.5 -35t75.5 35t34.5 105q1 8 5.5 12.5t10.5 4.5q7 0 12.5 -5.5t4.5 -14.5q-5 -56 -24 -94.5t-49.5 -58.5t-69.5 -20z" />
    <glyph glyph-name="Uring" unicode="&#x16e;" horiz-adv-x="720" 
d="M360 -8q-66 0 -116.5 18t-84 53.5t-51 87.5t-17.5 120v418q0 11 5.5 16.5t15.5 5.5t15.5 -5.5t5.5 -16.5v-412q0 -123 57.5 -183.5t169.5 -60.5q113 0 170 60.5t57 183.5v412q0 11 5.5 16.5t15.5 5.5t15.5 -5.5t5.5 -16.5v-418q0 -90 -30.5 -152.5t-90.5 -94.5t-148 -32z
M360 760q-31 0 -56.5 15t-40.5 40t-15 55q0 31 15 55.5t40.5 39.5t56.5 15q32 0 57 -15t40 -39.5t15 -55.5q0 -30 -15 -55t-40 -40t-57 -15zM360 792q35 0 56.5 22.5t21.5 55.5t-21.5 55.5t-56.5 22.5q-34 0 -56 -22.5t-22 -55.5t22 -55.5t56 -22.5z" />
    <glyph glyph-name="uring" unicode="&#x16f;" horiz-adv-x="545" 
d="M254 -8q-57 0 -95 21t-57 62t-19 102v291q0 11 5.5 16.5t15.5 5.5t15.5 -5.5t5.5 -16.5v-287q0 -76 31 -113t98 -37q73 0 118.5 48.5t45.5 127.5v261q0 11 5.5 16.5t15.5 5.5t15.5 -5.5t5.5 -16.5v-452q0 -22 -20 -22q-10 0 -15.5 6t-5.5 16v105h12q-19 -63 -67 -96
t-110 -33zM273 548q-31 0 -56.5 15t-40.5 40t-15 55q0 31 15 55.5t40.5 39.5t56.5 15q32 0 57 -15t40 -39.5t15 -55.5q0 -30 -15 -55t-40 -40t-57 -15zM273 580q35 0 56.5 22.5t21.5 55.5t-21.5 55.5t-56.5 22.5q-34 0 -56 -22.5t-22 -55.5t22 -55.5t56 -22.5z" />
    <glyph glyph-name="Uhungarumlaut" unicode="&#x170;" horiz-adv-x="720" 
d="M360 -8q-66 0 -116.5 18t-84 53.5t-51 87.5t-17.5 120v418q0 11 5.5 16.5t15.5 5.5t15.5 -5.5t5.5 -16.5v-412q0 -123 57.5 -183.5t169.5 -60.5q113 0 170 60.5t57 183.5v412q0 11 5.5 16.5t15.5 5.5t15.5 -5.5t5.5 -16.5v-418q0 -90 -30.5 -152.5t-90.5 -94.5t-148 -32z
M320 766q-4 -6 -9 -7.5t-9.5 0.5t-5.5 7t2 11l75 148q5 10 12 13.5t14 2t11.5 -6t5.5 -12t-5 -16.5zM428 766q-4 -6 -9 -7.5t-9.5 0.5t-5.5 7t2 11l75 148q5 10 12 13.5t14 2t11.5 -6t5.5 -12t-5 -16.5z" />
    <glyph glyph-name="uhungarumlaut" unicode="&#x171;" horiz-adv-x="545" 
d="M254 -8q-57 0 -95 21t-57 62t-19 102v291q0 11 5.5 16.5t15.5 5.5t15.5 -5.5t5.5 -16.5v-287q0 -76 31 -113t98 -37q73 0 118.5 48.5t45.5 127.5v261q0 11 5.5 16.5t15.5 5.5t15.5 -5.5t5.5 -16.5v-452q0 -22 -20 -22q-10 0 -15.5 6t-5.5 16v105h12q-19 -63 -67 -96
t-110 -33zM343 554q-2 -6 -7 -8t-10 -0.5t-8 5.5t-1 11l51 175q3 11 9.5 16t14 5.5t13.5 -3t8.5 -10t-1.5 -15.5zM234 554q-2 -6 -7 -8t-10 -0.5t-8 5.5t-1 11l51 175q3 11 9.5 16t14 5.5t13.5 -3t8.5 -10t-1.5 -15.5z" />
    <glyph glyph-name="Uogonek" unicode="&#x172;" horiz-adv-x="720" 
d="M360 -8q-66 0 -116.5 18t-84 53.5t-51 87.5t-17.5 120v418q0 11 5.5 16.5t15.5 5.5t15.5 -5.5t5.5 -16.5v-412q0 -123 57.5 -183.5t169.5 -60.5q113 0 170 60.5t57 183.5v412q0 11 5.5 16.5t15.5 5.5t15.5 -5.5t5.5 -16.5v-418q0 -90 -30.5 -152.5t-90.5 -94.5t-148 -32z
M400 -190q-41 0 -67.5 25t-26.5 67q0 38 23.5 72.5t66.5 56.5l21 -31q-15 -6 -31.5 -19t-28.5 -32t-12 -43q0 -31 17.5 -45.5t42.5 -14.5q11 0 20.5 2t18.5 5q10 3 15.5 -0.5t7 -10.5t-1.5 -13.5t-10 -9.5q-14 -5 -27.5 -7t-27.5 -2z" />
    <glyph glyph-name="uogonek" unicode="&#x173;" horiz-adv-x="545" 
d="M419 121h12q-19 -63 -67 -96t-110 -33q-57 0 -95 21t-57 62t-19 102v291q0 11 5.5 16.5t15.5 5.5t15.5 -5.5t5.5 -16.5v-287q0 -76 31 -113t98 -37q73 0 118.5 48.5t45.5 127.5v261q0 11 5.5 16.5t15.5 5.5t15.5 -5.5t5.5 -16.5v-452q0 -8 -3.5 -13.5t-8.5 -8.5
q-22 -13 -41 -35t-19 -53t17.5 -45.5t42.5 -14.5q11 0 20.5 2t18.5 5q10 3 15.5 -0.5t7 -10.5t-1.5 -13.5t-10 -9.5q-14 -5 -27.5 -7t-27.5 -2q-41 0 -67.5 25t-26.5 67q0 36 22 69.5t61 55.5l-11 -21q-1 2 -1.5 5.5t-0.5 6.5v103z" />
    <glyph glyph-name="Wcircumflex" unicode="&#x174;" horiz-adv-x="1091" 
d="M303 -6q-10 0 -16 6t-11 18l-231 667q-4 11 1.5 18.5t16.5 7.5q9 0 14.5 -4.5t9.5 -15.5l231 -672h-30l231 668q5 12 10.5 18t15.5 6t15.5 -6t9.5 -18l231 -668h-28l232 672q3 10 9 15t16 5q11 0 16 -7t0 -19l-231 -667q-4 -12 -10 -18t-17 -6t-17 6t-11 18l-225 653h20
l-226 -653q-4 -12 -9.5 -18t-16.5 -6zM438 766q-6 -7 -12.5 -8t-11.5 2t-6 9t4 13l101 142q7 10 15 13.5t17 3.5t17 -3.5t15 -13.5l101 -142q5 -7 4 -13t-6 -9t-11.5 -2t-12.5 8l-107 131z" />
    <glyph glyph-name="wcircumflex" unicode="&#x175;" horiz-adv-x="830" 
d="M235 -6q-10 0 -18.5 6t-13.5 19l-153 436q-4 12 -2 19.5t7.5 11.5t12.5 4q9 0 14 -4t8 -14l157 -459h-26l162 452q5 13 13.5 19t19.5 6t20 -6t13 -19l158 -452h-26l161 459q4 11 8.5 14.5t14.5 3.5t14 -5t4.5 -13t-2.5 -17l-155 -436q-4 -13 -12.5 -19t-18.5 -6t-18.5 6
t-13.5 19l-162 458h31l-165 -458q-4 -13 -12.5 -19t-19.5 -6zM538 568q4 -8 2 -14t-7.5 -8.5t-11.5 -1t-10 7.5l-96 158l-96 -158q-4 -6 -10 -7.5t-11.5 1t-7.5 8.5t2 14l93 170q6 11 13.5 15.5t16.5 4.5t16.5 -4.5t13.5 -15.5z" />
    <glyph glyph-name="Ycircumflex" unicode="&#x176;" horiz-adv-x="577" 
d="M288 -6q-10 0 -15.5 6t-5.5 17v350l11 -39l-260 351q-6 9 -6 16.5t5 11.5t12 4q8 0 14 -3t11 -11l243 -329h-15l243 329q5 8 10.5 11t13.5 3q7 0 11.5 -4t5 -11.5t-6.5 -16.5l-260 -351l10 39v-350q0 -23 -21 -23zM181 766q-6 -7 -12.5 -8t-11.5 2t-6 9t4 13l101 142
q7 10 15 13.5t17 3.5t17 -3.5t15 -13.5l101 -142q5 -7 4 -13t-6 -9t-11.5 -2t-12.5 8l-107 131z" />
    <glyph glyph-name="ycircumflex" unicode="&#x177;" horiz-adv-x="504" 
d="M180 -186q-9 0 -14 5t-5 13t3 16l69 159v-20l-200 468q-4 10 -3 17.5t6.5 12.5t15.5 5q9 0 13.5 -4.5t8.5 -12.5l190 -459h-24l191 459q4 9 8.5 13t14.5 4t14.5 -5t5 -12.5t-3.5 -16.5l-266 -624q-4 -10 -9 -14t-15 -4zM375 568q4 -8 2 -14t-7.5 -8.5t-11.5 -1t-10 7.5
l-96 158l-96 -158q-4 -6 -10 -7.5t-11.5 1t-7.5 8.5t2 14l93 170q6 11 13.5 15.5t16.5 4.5t16.5 -4.5t13.5 -15.5z" />
    <glyph glyph-name="Ydieresis" unicode="&#x178;" horiz-adv-x="577" 
d="M288 -6q-10 0 -15.5 6t-5.5 17v350l11 -39l-260 351q-6 9 -6 16.5t5 11.5t12 4q8 0 14 -3t11 -11l243 -329h-15l243 329q5 8 10.5 11t13.5 3q7 0 11.5 -4t5 -11.5t-6.5 -16.5l-260 -351l10 39v-350q0 -23 -21 -23zM369 817q-16 0 -25 8.5t-9 24.5t9 24.5t25 8.5
t24.5 -8.5t8.5 -24.5t-8.5 -24.5t-24.5 -8.5zM208 817q-16 0 -25 8.5t-9 24.5t9 24.5t25 8.5t24.5 -8.5t8.5 -24.5t-8.5 -24.5t-24.5 -8.5z" />
    <glyph glyph-name="Zacute" unicode="&#x179;" horiz-adv-x="575" 
d="M69 0q-8 0 -13.5 3.5t-8 9.5t-0.5 14t8 17l447 645v-23h-436q-11 0 -17 5.5t-6 14.5t6 14t17 5h452q8 0 13.5 -3.5t8 -9.5t0.5 -14t-8 -17l-447 -645v23h450q11 0 17 -5t6 -14q0 -10 -6 -15t-17 -5h-466zM321 768q-5 -6 -11.5 -7t-11.5 2t-6.5 9t3.5 13l99 143
q6 9 13.5 11.5t14.5 0.5t11.5 -7t4.5 -12t-6 -15z" />
    <glyph glyph-name="zacute" unicode="&#x17a;" horiz-adv-x="454" 
d="M77 0q-8 0 -12.5 3t-6.5 8.5t0 12.5t8 14l303 423v-13h-296q-9 0 -14 5t-5 13t5 13t14 5h317q9 0 14.5 -3t7.5 -8t0.5 -11.5t-6.5 -13.5l-306 -426v14h308q19 0 19 -18q0 -8 -5 -13t-14 -5h-331zM255 552q-4 -6 -10 -7.5t-12 1t-8 8.5t2 14l91 175q5 10 12.5 13t14.5 1.5
t12 -6.5t6 -12.5t-4 -15.5z" />
    <glyph glyph-name="Zdotaccent" unicode="&#x17b;" horiz-adv-x="575" 
d="M69 0q-8 0 -13.5 3.5t-8 9.5t-0.5 14t8 17l447 645v-23h-436q-11 0 -17 5.5t-6 14.5t6 14t17 5h452q8 0 13.5 -3.5t8 -9.5t0.5 -14t-8 -17l-447 -645v23h450q11 0 17 -5t6 -14q0 -10 -6 -15t-17 -5h-466zM300 815q-16 0 -25 9.5t-9 25.5q0 17 9 25.5t25 8.5
q17 0 25.5 -8.5t8.5 -25.5q0 -16 -8.5 -25.5t-25.5 -9.5z" />
    <glyph glyph-name="zdotaccent" unicode="&#x17c;" horiz-adv-x="454" 
d="M77 0q-8 0 -12.5 3t-6.5 8.5t0 12.5t8 14l303 423v-13h-296q-9 0 -14 5t-5 13t5 13t14 5h317q9 0 14.5 -3t7.5 -8t0.5 -11.5t-6.5 -13.5l-306 -426v14h308q19 0 19 -18q0 -8 -5 -13t-14 -5h-331zM235 616q-16 0 -25.5 9.5t-9.5 25.5q0 17 9.5 25.5t25.5 8.5q17 0 26 -8.5
t9 -25.5q0 -16 -9 -25.5t-26 -9.5z" />
    <glyph glyph-name="Zcaron" unicode="&#x17d;" horiz-adv-x="575" 
d="M69 0q-8 0 -13.5 3.5t-8 9.5t-0.5 14t8 17l447 645v-23h-436q-11 0 -17 5.5t-6 14.5t6 14t17 5h452q8 0 13.5 -3.5t8 -9.5t0.5 -14t-8 -17l-447 -645v23h450q11 0 17 -5t6 -14q0 -10 -6 -15t-17 -5h-466zM300 758q-9 0 -17 3.5t-15 13.5l-101 142q-5 7 -4 13t6 9t11.5 2
t12.5 -8l107 -131l107 131q6 7 12.5 8t11.5 -2t6 -9t-4 -13l-101 -142q-7 -10 -15 -13.5t-17 -3.5z" />
    <glyph glyph-name="zcaron" unicode="&#x17e;" horiz-adv-x="454" 
d="M77 0q-8 0 -12.5 3t-6.5 8.5t0 12.5t8 14l303 423v-13h-296q-9 0 -14 5t-5 13t5 13t14 5h317q9 0 14.5 -3t7.5 -8t0.5 -11.5t-6.5 -13.5l-306 -426v14h308q19 0 19 -18q0 -8 -5 -13t-14 -5h-331zM235 540q-9 0 -16.5 4.5t-13.5 15.5l-93 170q-4 8 -2 14t7.5 8.5t11.5 1
t10 -7.5l96 -158l96 158q4 6 10 7.5t11.5 -1t7.5 -8.5t-2 -14l-93 -170q-6 -11 -13.5 -15.5t-16.5 -4.5z" />
    <glyph glyph-name="uni0181" unicode="&#x181;" horiz-adv-x="767" 
d="M222 0q-12 0 -18.5 6.5t-6.5 18.5v641h-38q-61 0 -90.5 -28.5t-29.5 -89.5v-23q0 -8 -2 -13.5t-6.5 -8.5t-10.5 -3t-10.5 3t-7 8.5t-2.5 13.5v26q0 77 41 115.5t129 38.5h285q72 0 122 -21.5t76.5 -62.5t26.5 -101q0 -67 -40 -111t-108 -58v14q75 -7 119.5 -52.5
t44.5 -121.5q0 -94 -59 -142.5t-169 -48.5h-246zM239 39h228q92 0 138.5 36.5t46.5 112.5q0 77 -46.5 113t-138.5 36h-228v-298zM239 376h213q90 0 137 37.5t47 107.5q0 71 -47 108t-137 37h-213v-290z" />
    <glyph glyph-name="uni018A" unicode="&#x18a;" horiz-adv-x="826" 
d="M222 0q-12 0 -18.5 6.5t-6.5 18.5v641h-38q-61 0 -90.5 -28.5t-29.5 -89.5v-23q0 -8 -2 -13.5t-6.5 -8.5t-10.5 -3t-10.5 3t-7 8.5t-2.5 13.5v26q0 77 40 115.5t120 38.5h254q166 0 255.5 -89.5t89.5 -262.5q0 -86 -23 -152t-67 -110.5t-108 -67.5t-147 -23h-192zM239 39
h171q76 0 133 20t95 59t57 98t19 137q0 156 -76 234.5t-228 78.5h-171v-627z" />
    <glyph glyph-name="uni018F" unicode="&#x18f;" horiz-adv-x="751" 
d="M380 -8q-79 0 -137.5 25t-97.5 72t-58.5 112.5t-19.5 146.5q0 15 5 21.5t17 6.5h565v-39h-555l12 16q0 -103 29.5 -174.5t89 -108.5t149.5 -37q81 0 139.5 38t89.5 109.5t31 172.5q0 102 -33.5 173t-97 108.5t-154.5 37.5q-73 0 -127 -18.5t-101 -59.5q-7 -6 -13 -6
t-11 3.5t-7.5 9.5t-1 13t8.5 13q47 43 111.5 64.5t141.5 21.5q102 0 175.5 -43.5t113.5 -124t40 -192.5q0 -84 -21 -151t-61 -113.5t-96 -71.5t-126 -25z" />
    <glyph glyph-name="florin" unicode="&#x192;" horiz-adv-x="600" 
d="M64 -188q-9 0 -15 5.5t-6 12.5q0 8 6 13.5t15 5.5h24q50 0 81.5 25.5t45.5 91.5l103 485l10 -3h-126q-9 0 -15 5.5t-6 12.5q0 8 6 13t15 5h131l-10 -12l19 90q15 73 55 112t114 39h23q9 0 15 -5.5t6 -13.5t-6 -14t-15 -6h-23q-51 0 -82 -24t-45 -92l-18 -86l-9 12h128
q9 0 15 -5t6 -13q0 -7 -6 -12.5t-15 -5.5h-139l16 5l-105 -491q-10 -48 -31 -81.5t-55 -51t-83 -17.5h-24z" />
    <glyph glyph-name="Ohorn" unicode="&#x1a0;" horiz-adv-x="751" 
d="M375 -8q-95 0 -164 44t-106.5 125t-37.5 192q0 84 21 150.5t61 113t97 71.5t129 25q96 0 165.5 -43.5t106.5 -124t37 -191.5q0 -84 -21.5 -151t-61.5 -114t-97 -72t-129 -25zM375 33q84 0 143 37.5t90 109t31 173.5q0 152 -68.5 235.5t-195.5 83.5q-83 0 -142 -37.5
t-90 -109t-31 -172.5q0 -151 69 -235.5t194 -84.5zM483 667l-54 42q29 -2 50.5 -3t43.5 -1q49 0 74.5 13t35.5 38.5t10 62.5q0 12 5 18t15 6t15 -5.5t5 -18.5q0 -48 -17 -82t-49 -52t-78 -18h-56z" />
    <glyph glyph-name="ohorn" unicode="&#x1a1;" horiz-adv-x="538" 
d="M269 -8q-66 0 -114.5 31t-75 87t-26.5 132q0 57 15 103t43.5 79t68.5 50.5t89 17.5q66 0 114.5 -31t75 -87t26.5 -132q0 -57 -15 -103t-43.5 -79t-68 -50.5t-89.5 -17.5zM269 31q53 0 92 25t60 72.5t21 113.5q0 100 -46.5 155.5t-126.5 55.5q-53 0 -92 -25t-60 -72
t-21 -114q0 -100 47 -155.5t126 -55.5zM330 446l-15 13v25q36 0 59.5 8t37 22t18.5 35.5t5 48.5q0 24 20 24q10 0 15 -5.5t5 -18.5q0 -72 -37 -110.5t-108 -41.5z" />
    <glyph glyph-name="Uhorn" unicode="&#x1af;" horiz-adv-x="720" 
d="M360 -8q-66 0 -116.5 18t-84 53.5t-51 87.5t-17.5 120v418q0 11 5.5 16.5t15.5 5.5t15.5 -5.5t5.5 -16.5v-412q0 -123 57.5 -183.5t169.5 -60.5q113 0 170 60.5t57 183.5v412q0 11 5.5 16.5t15.5 5.5t15.5 -5.5t5.5 -16.5v-418q0 -90 -30.5 -152.5t-90.5 -94.5t-148 -32z
M603 667l-15 13v25q49 1 74.5 14t35.5 39t10 63q0 12 5 17t15 5t15 -4.5t5 -17.5q0 -49 -16.5 -82.5t-49 -51.5t-79.5 -20z" />
    <glyph glyph-name="uhorn" unicode="&#x1b0;" horiz-adv-x="545" 
d="M254 -8q-57 0 -95 21t-57 62t-19 102v291q0 11 5.5 16.5t15.5 5.5t15.5 -5.5t5.5 -16.5v-287q0 -76 31 -113t98 -37q73 0 118.5 48.5t45.5 127.5v256q0 11 5.5 16.5t15.5 5.5q39 3 61 16t31 37t9 60q0 24 20 24q10 0 15 -5.5t5 -18.5q0 -65 -30.5 -103t-89.5 -47v-432
q0 -22 -20 -22q-10 0 -15.5 6t-5.5 16v105h12q-19 -63 -67 -96t-110 -33z" />
    <glyph glyph-name="uni01B3" unicode="&#x1b3;" horiz-adv-x="607" 
d="M288 -6q-10 0 -15.5 6.5t-5.5 18.5v348l11 -39l-260 351q-6 9 -6 16.5t5 11.5t12 4q6 0 10 -1t7.5 -4t7.5 -9l243 -329h-14l194 275q17 25 38 40t43.5 22t45.5 7q24 0 36.5 -4t12.5 -18q0 -5 -2 -9t-6 -6t-11 -2q-3 0 -13.5 1t-14.5 1q-25 0 -50.5 -11.5t-46.5 -40.5
l-210 -295l10 39v-348q0 -25 -21 -25z" />
    <glyph glyph-name="uni01B4" unicode="&#x1b4;" horiz-adv-x="534" 
d="M180 -186q-9 0 -14 5t-5 13t3 16l69 159v-20l-200 470q-4 10 -3 17t6.5 11.5t15.5 4.5q9 0 14 -4.5t9 -12.5l189 -458h-24l161 387q13 31 29.5 51t39 29.5t52.5 9.5q27 0 39.5 -4.5t12.5 -16.5q0 -8 -5.5 -13.5t-13.5 -5.5q-6 0 -13 1t-15 1q-33 0 -53 -18.5t-40 -65.5
l-230 -538q-4 -10 -9 -14t-15 -4z" />
    <glyph glyph-name="uni01C4" unicode="&#x1c4;" horiz-adv-x="1285" 
d="M121 0q-12 0 -18.5 6.5t-6.5 18.5v655q0 12 6.5 18.5t18.5 6.5h192q166 0 255.5 -89.5t89.5 -262.5q0 -86 -23 -152t-67 -110.5t-108 -67.5t-147 -23h-192zM138 39h171q76 0 133 20t95 59t57 98t19 137q0 156 -76 234.5t-228 78.5h-171v-627zM779 0q-8 0 -13.5 3.5
t-8 9.5t-0.5 14t8 17l447 645v-23h-436q-11 0 -17 5.5t-6 14.5t6 14t17 5h452q8 0 13.5 -3.5t8 -9.5t0.5 -14t-8 -17l-447 -645v23h450q11 0 17 -5t6 -14q0 -10 -6 -15t-17 -5h-466zM1010 758q-9 0 -17 3.5t-15 13.5l-101 142q-5 7 -4 13t6 9t11.5 2t12.5 -8l107 -131
l107 131q6 7 12.5 8t11.5 -2t6 -9t-4 -13l-101 -142q-7 -10 -15 -13.5t-17 -3.5z" />
    <glyph glyph-name="uni01C5" unicode="&#x1c5;" horiz-adv-x="1179" 
d="M121 0q-12 0 -18.5 6.5t-6.5 18.5v655q0 12 6.5 18.5t18.5 6.5h192q166 0 255.5 -89.5t89.5 -262.5q0 -86 -23 -152t-67 -110.5t-108 -67.5t-147 -23h-192zM138 39h171q76 0 133 20t95 59t57 98t19 137q0 156 -76 234.5t-228 78.5h-171v-627zM802 0q-8 0 -12.5 3
t-6.5 8.5t0 12.5t8 14l303 423v-13h-296q-9 0 -14 5t-5 13t5 13t14 5h317q9 0 14.5 -3t7.5 -8t0.5 -11.5t-6.5 -13.5l-306 -426v14h308q19 0 19 -18q0 -8 -5 -13t-14 -5h-331zM960 540q-9 0 -16.5 4.5t-13.5 15.5l-93 170q-4 8 -2 14t7.5 8.5t11.5 1t10 -7.5l96 -158l96 158
q4 6 10 7.5t11.5 -1t7.5 -8.5t-2 -14l-93 -170q-6 -11 -13.5 -15.5t-16.5 -4.5z" />
    <glyph glyph-name="uni01C6" unicode="&#x1c6;" horiz-adv-x="1022" 
d="M268 -8q-65 0 -113.5 30.5t-75 87t-26.5 132.5q0 77 26 133t74.5 86.5t114.5 30.5q70 0 119 -36t65 -98h-11v331q0 11 5.5 16.5t15.5 5.5t15.5 -5.5t5.5 -16.5v-673q0 -10 -5.5 -16t-15.5 -6t-15.5 6t-5.5 16v110h11q-16 -61 -65 -97.5t-119 -36.5zM269 31q53 0 92 25
t60 72.5t21 113.5q0 100 -46.5 155.5t-126.5 55.5q-53 0 -92 -25t-60 -72t-21 -114q0 -100 47 -155.5t126 -55.5zM645 0q-8 0 -12.5 3t-6.5 8.5t0 12.5t8 14l303 423v-13h-296q-9 0 -14 5t-5 13t5 13t14 5h317q9 0 14.5 -3t7.5 -8t0.5 -11.5t-6.5 -13.5l-306 -426v14h308
q19 0 19 -18q0 -8 -5 -13t-14 -5h-331zM803 540q-9 0 -16.5 4.5t-13.5 15.5l-93 170q-4 8 -2 14t7.5 8.5t11.5 1t10 -7.5l96 -158l96 158q4 6 10 7.5t11.5 -1t7.5 -8.5t-2 -14l-93 -170q-6 -11 -13.5 -15.5t-16.5 -4.5z" />
    <glyph glyph-name="uni01C7" unicode="&#x1c7;" horiz-adv-x="864" 
d="M118 0q-10 0 -16 6t-6 16v667q0 11 5.5 16.5t15.5 5.5t15.5 -5.5t5.5 -16.5v-650h360q11 0 16.5 -5t5.5 -14q0 -10 -5.5 -15t-16.5 -5h-380zM579 -5q-11 -1 -17 5.5t-6 14.5q0 6 4.5 11.5t14.5 6.5l33 3q56 5 87 43t31 100v510q0 11 5.5 16.5t15.5 5.5t15.5 -5.5
t5.5 -16.5v-512q0 -53 -18 -91.5t-53 -60.5t-86 -27z" />
    <glyph glyph-name="uni01C8" unicode="&#x1c8;" horiz-adv-x="742" 
d="M118 0q-10 0 -16 6t-6 16v667q0 11 5.5 16.5t15.5 5.5t15.5 -5.5t5.5 -16.5v-650h360q11 0 16.5 -5t5.5 -14q0 -10 -5.5 -15t-16.5 -5h-380zM491 -192q-9 0 -14.5 3.5t-7.5 9.5t-1 11.5t6 9.5t14 4q64 2 95.5 32.5t31.5 99.5v490q0 11 5.5 16.5t15.5 5.5t15.5 -5.5
t5.5 -16.5v-489q0 -58 -20.5 -96t-57.5 -56.5t-88 -18.5zM636 616q-16 0 -25.5 9.5t-9.5 25.5q0 17 9.5 25.5t25.5 8.5q17 0 26 -8.5t9 -25.5q0 -16 -9 -25.5t-26 -9.5z" />
    <glyph glyph-name="uni01C9" unicode="&#x1c9;" horiz-adv-x="490" 
d="M217 -8q-63 0 -97.5 40.5t-34.5 113.5v543q0 11 5.5 16.5t15.5 5.5t15.5 -5.5t5.5 -16.5v-536q0 -61 24 -91.5t70 -30.5q10 0 17 1t14 1q8 0 12.5 -3t4.5 -12q0 -11 -6 -16t-20 -8q-7 -1 -13.5 -1.5t-12.5 -0.5zM239 -192q-9 0 -14.5 3.5t-7.5 9.5t-1 11.5t6 9.5t14 4
q64 2 95.5 32.5t31.5 99.5v490q0 11 5.5 16.5t15.5 5.5t15.5 -5.5t5.5 -16.5v-489q0 -58 -20.5 -96t-57.5 -56.5t-88 -18.5zM384 616q-16 0 -25.5 9.5t-9.5 25.5q0 17 9.5 25.5t25.5 8.5q17 0 26 -8.5t9 -25.5q0 -16 -9 -25.5t-26 -9.5z" />
    <glyph glyph-name="uni01CA" unicode="&#x1ca;" horiz-adv-x="1029" 
d="M116 -6q-9 0 -14.5 6t-5.5 16v672q0 11 5 17t13 6q9 0 13.5 -3t9.5 -11l482 -655h-22v647q0 11 5.5 16.5t14.5 5.5t14 -5.5t5 -16.5v-672q0 -11 -4.5 -17t-12.5 -6q-7 0 -12.5 3.5t-10.5 10.5l-482 655h21v-647q0 -10 -5 -16t-14 -6zM744 -5q-11 -1 -17 5.5t-6 14.5
q0 6 4.5 11.5t14.5 6.5l33 3q56 5 87 43t31 100v510q0 11 5.5 16.5t15.5 5.5t15.5 -5.5t5.5 -16.5v-512q0 -53 -18 -91.5t-53 -60.5t-86 -27z" />
    <glyph glyph-name="uni01CB" unicode="&#x1cb;" horiz-adv-x="947" 
d="M116 -6q-9 0 -14.5 6t-5.5 16v672q0 11 5 17t13 6q9 0 13.5 -3t9.5 -11l482 -655h-22v647q0 11 5.5 16.5t14.5 5.5t14 -5.5t5 -16.5v-672q0 -11 -4.5 -17t-12.5 -6q-7 0 -12.5 3.5t-10.5 10.5l-482 655h21v-647q0 -10 -5 -16t-14 -6zM696 -192q-9 0 -14.5 3.5t-7.5 9.5
t-1 11.5t6 9.5t14 4q64 2 95.5 32.5t31.5 99.5v490q0 11 5.5 16.5t15.5 5.5t15.5 -5.5t5.5 -16.5v-489q0 -58 -20.5 -96t-57.5 -56.5t-88 -18.5zM841 616q-16 0 -25.5 9.5t-9.5 25.5q0 17 9.5 25.5t25.5 8.5q17 0 26 -8.5t9 -25.5q0 -16 -9 -25.5t-26 -9.5z" />
    <glyph glyph-name="uni01CC" unicode="&#x1cc;" horiz-adv-x="768" 
d="M106 -6q-10 0 -15.5 6t-5.5 16v452q0 11 5.5 16.5t15.5 5.5t15 -5.5t5 -16.5v-102h-11q20 63 69 94.5t113 31.5q58 0 96.5 -20t57.5 -61t19 -103v-292q0 -10 -5.5 -16t-15.5 -6t-15.5 6t-5.5 16v288q0 77 -31 113t-100 36q-77 0 -123.5 -47.5t-46.5 -127.5v-262
q0 -22 -21 -22zM517 -192q-9 0 -14.5 3.5t-7.5 9.5t-1 11.5t6 9.5t14 4q64 2 95.5 32.5t31.5 99.5v490q0 11 5.5 16.5t15.5 5.5t15.5 -5.5t5.5 -16.5v-489q0 -58 -20.5 -96t-57.5 -56.5t-88 -18.5zM662 616q-16 0 -25.5 9.5t-9.5 25.5q0 17 9.5 25.5t25.5 8.5q17 0 26 -8.5
t9 -25.5q0 -16 -9 -25.5t-26 -9.5z" />
    <glyph glyph-name="uni01CD" unicode="&#x1cd;" horiz-adv-x="716" 
d="M62 -6q-10 0 -15 4t-5 11.5t4 16.5l286 664q5 11 12 16t14 5q8 0 15 -5t11 -16l286 -664q4 -9 4 -16.5t-4 -11.5t-14 -4t-16.5 6t-10.5 15l-81 189l27 -9h-436l28 9l-81 -189q-4 -11 -11 -16t-13 -5zM357 648l-179 -420l-22 6h402l-20 -6l-179 420h-2zM359 758
q-9 0 -17 3.5t-15 13.5l-101 142q-5 7 -4 13t6 9t11.5 2t12.5 -8l107 -131l107 131q6 7 12.5 8t11.5 -2t6 -9t-4 -13l-101 -142q-7 -10 -15 -13.5t-17 -3.5z" />
    <glyph glyph-name="uni01CE" unicode="&#x1ce;" horiz-adv-x="514" 
d="M231 -8q-47 0 -85 19t-60 51.5t-22 72.5q0 54 26.5 84.5t91 43t177.5 12.5h41v-37h-39q-99 0 -153.5 -8.5t-76 -30t-21.5 -60.5q0 -48 33.5 -78.5t90.5 -30.5q46 0 80.5 22.5t54.5 61t20 87.5v114q0 72 -28 105t-90 33q-40 0 -76.5 -11t-76.5 -34q-9 -5 -15.5 -4
t-10.5 5.5t-5.5 11t1 12.5t9.5 10q41 25 85 37t87 12q55 0 91 -19t53.5 -58t17.5 -100v-299q0 -10 -5 -16t-15 -6t-15.5 6t-5.5 16v105h11q-10 -40 -34 -69t-58.5 -44.5t-77.5 -15.5zM265 540q-9 0 -16.5 4.5t-13.5 15.5l-93 170q-4 8 -2 14t7.5 8.5t11.5 1t10 -7.5l96 -158
l96 158q4 6 10 7.5t11.5 -1t7.5 -8.5t-2 -14l-93 -170q-6 -11 -13.5 -15.5t-16.5 -4.5z" />
    <glyph glyph-name="uni01D4" unicode="&#x1d4;" horiz-adv-x="545" 
d="M254 -8q-57 0 -95 21t-57 62t-19 102v291q0 11 5.5 16.5t15.5 5.5t15.5 -5.5t5.5 -16.5v-287q0 -76 31 -113t98 -37q73 0 118.5 48.5t45.5 127.5v261q0 11 5.5 16.5t15.5 5.5t15.5 -5.5t5.5 -16.5v-452q0 -22 -20 -22q-10 0 -15.5 6t-5.5 16v105h12q-19 -63 -67 -96
t-110 -33zM273 541q-9 0 -16.5 4.5t-13.5 15.5l-93 170q-4 8 -2 14t7.5 8.5t11.5 1t10 -7.5l96 -158l96 158q4 6 10 7.5t11.5 -1t7.5 -8.5t-2 -14l-93 -170q-6 -11 -13.5 -15.5t-16.5 -4.5z" />
    <glyph glyph-name="uni01E5" unicode="&#x1e5;" horiz-adv-x="570" 
d="M290 -188q-53 0 -103.5 15t-91.5 47q-5 4 -6.5 10t0.5 11.5t6.5 10t10 5t11.5 -3.5q44 -31 84.5 -44t89.5 -12q58 1 94 25.5t50 71.5l15 -11h-121q-9 0 -14 5t-5 13t5 13t14 5h115l-5 -11q2 12 3.5 27t1.5 26v148h10q-16 -64 -63.5 -98t-119.5 -34q-65 0 -114 29
t-76.5 81t-27.5 121q0 51 15.5 93.5t44.5 73t69 47t89 16.5q72 0 119.5 -34t63.5 -97h-11v107q0 11 5.5 16.5t15.5 5.5t15.5 -5.5t5.5 -16.5v-446q0 -16 -1.5 -31.5t-3.5 -28.5l-3 11h67q9 0 14 -5t5 -13t-5 -13t-14 -5h-88l21 10q-16 -67 -62.5 -101t-124.5 -34zM270 70
q54 0 93 23t59.5 66.5t20.5 102.5q0 89 -46 140t-127 51q-53 0 -92.5 -23t-60.5 -65.5t-21 -102.5q0 -90 47 -141t127 -51z" />
    <glyph glyph-name="Gcaron" unicode="&#x1e6;" horiz-adv-x="718" 
d="M402 -8q-109 0 -184 42.5t-113 123.5t-38 195q0 84 21 150.5t61.5 113t99 71.5t132.5 25q70 0 131 -21t104 -65q6 -6 7 -12.5t-1.5 -12.5t-7.5 -10t-11.5 -3.5t-12.5 6.5q-43 41 -95.5 59t-114.5 18q-86 0 -146 -37.5t-91 -109t-31 -172.5q0 -156 72 -238t217 -82
q56 0 106 10.5t93 29.5l-12 -38v281h-173q-10 0 -15.5 5.5t-5.5 14.5t5.5 14t15.5 5h192q10 0 15.5 -5.5t5.5 -15.5v-277q0 -8 -2.5 -14t-8.5 -9q-39 -18 -99 -30t-116 -12zM383 758q-9 0 -17 3.5t-15 13.5l-101 142q-5 7 -4 13t6 9t11.5 2t12.5 -8l107 -131l107 131
q6 7 12.5 8t11.5 -2t6 -9t-4 -13l-101 -142q-7 -10 -15 -13.5t-17 -3.5z" />
    <glyph glyph-name="gcaron" unicode="&#x1e7;" horiz-adv-x="570" 
d="M290 -188q-53 0 -103.5 15t-91.5 47q-5 4 -6.5 10t0.5 11.5t6.5 10t10 5t11.5 -3.5q44 -31 84.5 -43.5t89.5 -12.5q75 0 114 42.5t39 121.5v133h10q-14 -64 -64 -100.5t-119 -36.5q-67 0 -116 30.5t-75.5 85t-26.5 125.5q0 54 15 98t43.5 75.5t68.5 49t91 17.5
q69 0 119 -36.5t64 -100.5h-11v113q0 11 5.5 16.5t15.5 5.5t15.5 -5.5t5.5 -16.5v-446q0 -104 -49 -157t-146 -53zM270 50q54 0 93 25t60 70.5t21 106.5q0 92 -47 146.5t-127 54.5q-53 0 -92.5 -24.5t-60.5 -69.5t-21 -107q0 -92 47 -147t127 -55zM288 540q-9 0 -16.5 4.5
t-13.5 15.5l-93 170q-4 8 -2 14t7.5 8.5t11.5 1t10 -7.5l96 -158l96 158q4 6 10 7.5t11.5 -1t7.5 -8.5t-2 -14l-93 -170q-6 -11 -13.5 -15.5t-16.5 -4.5z" />
    <glyph glyph-name="uni01E9" unicode="&#x1e9;" horiz-adv-x="468" 
d="M106 -6q-10 0 -15.5 6t-5.5 16v673q0 11 5.5 16.5t15.5 5.5t15.5 -5.5t5.5 -16.5v-429h2l241 215q8 7 15 11t17 4q8 0 13 -4.5t4.5 -11.5t-8.5 -15l-257 -228v36l279 -238q10 -8 11 -16t-3.5 -13.5t-12.5 -5.5q-9 0 -15.5 4t-17.5 13l-266 226h-2v-221q0 -22 -21 -22z
M278 758q-9 0 -17 3.5t-15 13.5l-101 142q-5 7 -4 13t6 9t11.5 2t12.5 -8l107 -131l107 131q6 7 12.5 8t11.5 -2t6 -9t-4 -13l-101 -142q-7 -10 -15 -13.5t-17 -3.5z" />
    <glyph glyph-name="uni01EA" unicode="&#x1ea;" horiz-adv-x="751" 
d="M375 -8q-95 0 -164 44t-106.5 125t-37.5 192q0 84 21 150.5t61 113t97 71.5t129 25q96 0 165.5 -43.5t106.5 -124t37 -191.5q0 -84 -21.5 -151t-61.5 -114t-97 -72t-129 -25zM375 33q84 0 143 37.5t90 109t31 173.5q0 152 -68.5 235.5t-195.5 83.5q-83 0 -142 -37.5
t-90 -109t-31 -172.5q0 -151 69 -235.5t194 -84.5zM413 -190q-41 0 -67.5 25t-26.5 67q0 38 23.5 72.5t66.5 56.5l21 -31q-15 -6 -31.5 -19t-28.5 -32t-12 -43q0 -31 17.5 -45.5t42.5 -14.5q11 0 20.5 2t18.5 5q10 3 15.5 -0.5t7 -10.5t-1.5 -13.5t-10 -9.5q-14 -5 -27.5 -7
t-27.5 -2z" />
    <glyph glyph-name="uni01EB" unicode="&#x1eb;" horiz-adv-x="538" 
d="M269 -8q-66 0 -114.5 31t-75 87t-26.5 132q0 57 15 103t43.5 79t68.5 50.5t89 17.5q66 0 114.5 -31t75 -87t26.5 -132q0 -57 -15 -103t-43.5 -79t-68 -50.5t-89.5 -17.5zM269 31q53 0 92 25t60 72.5t21 113.5q0 100 -46.5 155.5t-126.5 55.5q-53 0 -92 -25t-60 -72
t-21 -114q0 -100 47 -155.5t126 -55.5zM311 -190q-41 0 -67.5 25t-26.5 67q0 38 23.5 72.5t66.5 56.5l21 -31q-15 -6 -31.5 -19t-28.5 -32t-12 -43q0 -31 17.5 -45.5t42.5 -14.5q11 0 20.5 2t18.5 5q10 3 15.5 -0.5t7 -10.5t-1.5 -13.5t-10 -9.5q-14 -5 -27.5 -7t-27.5 -2z
" />
    <glyph glyph-name="uni01EF" unicode="&#x1ef;" horiz-adv-x="476" 
d="M224 -188q-57 0 -106.5 13.5t-84.5 40.5q-7 5 -8.5 11.5t0 12.5t6 10t11.5 4t14 -6q35 -25 76 -36t92 -11q86 0 130 42.5t44 123.5q0 71 -42.5 110t-119.5 39h-95q-10 0 -13.5 4.5t-1 12t8.5 14.5l230 263v-13h-311q-10 0 -16 5t-6 14q0 18 22 18h342q9 0 13.5 -3.5t5 -9
t-1.5 -11.5t-7 -11l-235 -266v21h63q66 0 112 -22t70.5 -64t24.5 -101q0 -64 -25.5 -110t-74 -70.5t-117.5 -24.5zM224 540q-9 0 -16.5 4.5t-13.5 15.5l-93 170q-4 8 -2 14t7.5 8.5t11.5 1t10 -7.5l96 -158l96 158q4 6 10 7.5t11.5 -1t7.5 -8.5t-2 -14l-93 -170
q-6 -11 -13.5 -15.5t-16.5 -4.5z" />
    <glyph glyph-name="Aringacute" unicode="&#x1fa;" horiz-adv-x="716" 
d="M62 -6q-10 0 -15 4t-5 11.5t4 16.5l286 664q5 11 12 16t14 5q8 0 15 -5t11 -16l286 -664q4 -9 4 -16.5t-4 -11.5t-14 -4t-16.5 6t-10.5 15l-81 189l27 -9h-436l28 9l-81 -189q-4 -11 -11 -16t-13 -5zM357 648l-179 -420l-22 6h402l-20 -6l-179 420h-2zM359 760
q-31 0 -56.5 15t-40.5 40t-15 55q0 31 15 55.5t40.5 39.5t56.5 15q20 0 37 -5.5t31 -16.5l78 73q8 8 16.5 7t14 -6.5t5.5 -13.5t-8 -15l-82 -69q20 -28 20 -64q0 -30 -15 -55t-40 -40t-57 -15zM359 792q35 0 56.5 22.5t21.5 55.5t-21.5 55.5t-56.5 22.5q-34 0 -56 -22.5
t-22 -55.5t22 -55.5t56 -22.5z" />
    <glyph glyph-name="aringacute" unicode="&#x1fb;" horiz-adv-x="514" 
d="M231 -8q-47 0 -85 19t-60 51.5t-22 72.5q0 54 26.5 84.5t91 43t177.5 12.5h41v-37h-39q-99 0 -153.5 -8.5t-76 -30t-21.5 -60.5q0 -48 33.5 -78.5t90.5 -30.5q46 0 80.5 22.5t54.5 61t20 87.5v114q0 72 -28 105t-90 33q-40 0 -76.5 -11t-76.5 -34q-9 -5 -15.5 -4
t-10.5 5.5t-5.5 11t1 12.5t9.5 10q41 25 85 37t87 12q55 0 91 -19t53.5 -58t17.5 -100v-299q0 -10 -5 -16t-15 -6t-15.5 6t-5.5 16v105h11q-10 -40 -34 -69t-58.5 -44.5t-77.5 -15.5zM265 547q-31 0 -56.5 15t-40.5 40t-15 55q0 31 15 55.5t40.5 39.5t56.5 15q20 0 37 -5.5
t31 -16.5l78 73q8 8 16.5 7t14 -6.5t5.5 -13.5t-8 -15l-82 -69q20 -28 20 -64q0 -30 -15 -55t-40 -40t-57 -15zM265 579q35 0 56.5 22.5t21.5 55.5t-21.5 55.5t-56.5 22.5q-34 0 -56 -22.5t-22 -55.5t22 -55.5t56 -22.5z" />
    <glyph glyph-name="AEacute" unicode="&#x1fc;" horiz-adv-x="971" 
d="M31 -6q-9 0 -14.5 4t-5.5 10.5t4 13.5l398 667q5 8 11.5 12t15.5 4h464q11 0 17 -5t6 -14q0 -10 -6 -15t-17 -5h-445l7 24l68 -324l-17 11h367q11 0 17 -5t6 -14q0 -10 -6 -15t-17 -5h-359l13 10l69 -328l-21 19h318q11 0 17 -5t6 -14q0 -10 -6 -15t-17 -5h-312
q-20 0 -25 20l-39 187l20 -12h-395l19 12l-117 -197q-4 -8 -10 -12t-14 -4zM433 648l-251 -424l-9 10h357l-6 -9l-89 423h-2zM507 768q-5 -6 -11.5 -7t-11.5 2t-6.5 9t3.5 13l99 143q6 9 13.5 11.5t14.5 0.5t11.5 -7t4.5 -12t-6 -15z" />
    <glyph glyph-name="aeacute" unicode="&#x1fd;" horiz-adv-x="857" 
d="M233 -8q-48 0 -86 19t-60.5 51.5t-22.5 72.5q0 54 27.5 84.5t92 42.5t175.5 12h45v-37h-43q-99 0 -153.5 -8t-76 -29.5t-21.5 -60.5q0 -48 34 -78.5t92 -30.5q48 0 83.5 23t55 63.5t19.5 91.5v104q0 74 -29.5 107.5t-91.5 33.5q-41 0 -78 -11t-77 -34q-9 -5 -15.5 -4
t-10.5 5.5t-5.5 11t1 12.5t9.5 10q41 25 85.5 37t88.5 12q76 0 115.5 -35t49.5 -103h-20q25 67 76.5 102.5t123.5 36.5q45 0 80.5 -15.5t61 -45.5t38.5 -73t13 -97v-5q0 -9 -5.5 -14.5t-16.5 -5.5h-359v37h358l-16 -11q0 59 -18 101.5t-53 66t-87 23.5q-53 0 -92.5 -25.5
t-61 -71t-21.5 -107.5v-7q0 -100 47.5 -156t135.5 -56q35 0 71.5 11t70.5 37q7 6 14.5 6.5t13 -3t8 -9t0.5 -12.5t-10 -13q-31 -25 -74 -40.5t-90 -15.5q-87 0 -143.5 43t-76.5 125h18q-12 -77 -62 -122.5t-127 -45.5zM436 552q-4 -6 -10 -7.5t-12 1t-8 8.5t2 14l91 175
q5 10 12.5 13t14.5 1.5t12 -6.5t6 -12.5t-4 -15.5z" />
    <glyph glyph-name="Oslashacute" unicode="&#x1fe;" horiz-adv-x="751" 
d="M375 -8q-95 0 -164 44t-106.5 125t-37.5 192q0 84 21 150.5t61 113t97 71.5t129 25q96 0 165.5 -43.5t106.5 -124t37 -191.5q0 -84 -21.5 -151t-61.5 -114t-97 -72t-129 -25zM375 33q84 0 143 37.5t90 109t31 173.5q0 152 -68.5 235.5t-195.5 83.5q-83 0 -142 -37.5
t-90 -109t-31 -172.5q0 -151 69 -235.5t194 -84.5zM178 -23q-4 -7 -9.5 -9t-11.5 -0.5t-10 5.5t-4.5 10.5t3.5 13.5l38 65l13 22l324 556l13 22l39 66q4 7 9.5 9t11.5 0.5t10 -5.5t4.5 -10.5t-3.5 -13.5l-38 -65l-13 -22l-324 -556l-13 -22zM396 768q-5 -6 -11.5 -7t-11.5 2
t-6.5 9t3.5 13l99 143q6 9 13.5 11.5t14.5 0.5t11.5 -7t4.5 -12t-6 -15z" />
    <glyph glyph-name="oslashacute" unicode="&#x1ff;" horiz-adv-x="538" 
d="M269 -8q-66 0 -114.5 31t-75 87t-26.5 132q0 57 15 103t43.5 79t68.5 50.5t89 17.5q66 0 114.5 -31t75 -87t26.5 -132q0 -57 -15 -103t-43.5 -79t-68 -50.5t-89.5 -17.5zM269 31q53 0 92 25t60 72.5t21 113.5q0 100 -46.5 155.5t-126.5 55.5q-53 0 -92 -25t-60 -72
t-21 -114q0 -100 47 -155.5t126 -55.5zM135 -26q-5 -8 -12 -9.5t-12.5 2t-7.5 11t3 16.5l297 516q5 8 12 9.5t12.5 -2t7.5 -11t-3 -16.5zM288 552q-4 -6 -10 -7.5t-12 1t-8 8.5t2 14l91 175q5 10 12.5 13t14.5 1.5t12 -6.5t6 -12.5t-4 -15.5z" />
    <glyph glyph-name="uni0200" unicode="&#x200;" horiz-adv-x="716" 
d="M62 -6q-10 0 -15 4t-5 11.5t4 16.5l286 664q5 11 12 16t14 5q8 0 15 -5t11 -16l286 -664q4 -9 4 -16.5t-4 -11.5t-14 -4t-16.5 6t-10.5 15l-81 189l27 -9h-436l28 9l-81 -189q-4 -11 -11 -16t-13 -5zM357 648l-179 -420l-22 6h402l-20 -6l-179 420h-2zM399 766l-91 140
q-6 9 -5 16.5t5.5 12t11.5 6t14 -2t12 -13.5l75 -148q3 -6 2 -11t-5.5 -7t-9.5 -0.5t-9 7.5zM291 766l-91 140q-6 9 -5 16.5t5.5 12t11.5 6t14 -2t12 -13.5l75 -148q3 -6 2 -11t-5.5 -7t-9.5 -0.5t-9 7.5z" />
    <glyph glyph-name="uni0201" unicode="&#x201;" horiz-adv-x="514" 
d="M231 -8q-47 0 -85 19t-60 51.5t-22 72.5q0 54 26.5 84.5t91 43t177.5 12.5h41v-37h-39q-99 0 -153.5 -8.5t-76 -30t-21.5 -60.5q0 -48 33.5 -78.5t90.5 -30.5q46 0 80.5 22.5t54.5 61t20 87.5v114q0 72 -28 105t-90 33q-40 0 -76.5 -11t-76.5 -34q-9 -5 -15.5 -4
t-10.5 5.5t-5.5 11t1 12.5t9.5 10q41 25 85 37t87 12q55 0 91 -19t53.5 -58t17.5 -100v-299q0 -10 -5 -16t-15 -6t-15.5 6t-5.5 16v105h11q-10 -40 -34 -69t-58.5 -44.5t-77.5 -15.5zM304 553l-69 176q-4 9 -1.5 15.5t8.5 10t13.5 3t14 -5.5t9.5 -16l51 -175q2 -7 -1 -11
t-8 -5.5t-10 0.5t-7 8zM195 553l-69 176q-4 9 -1.5 15.5t8.5 10t13.5 3t14 -5.5t9.5 -16l51 -175q2 -7 -1 -11t-8 -5.5t-10 0.5t-7 8z" />
    <glyph glyph-name="uni0202" unicode="&#x202;" horiz-adv-x="716" 
d="M62 -6q-10 0 -15 4t-5 11.5t4 16.5l286 664q5 11 12 16t14 5q8 0 15 -5t11 -16l286 -664q4 -9 4 -16.5t-4 -11.5t-14 -4t-16.5 6t-10.5 15l-81 189l27 -9h-436l28 9l-81 -189q-4 -11 -11 -16t-13 -5zM357 648l-179 -420l-22 6h402l-20 -6l-179 420h-2zM219 758
q-7 0 -12 5.5t-4 14.5q14 81 58 117t98 36t98.5 -36t57.5 -117q2 -9 -3.5 -14.5t-12.5 -5.5q-3 0 -7 2t-6.5 6t-3.5 9q-12 67 -46.5 93.5t-76.5 26.5t-76.5 -26.5t-46.5 -93.5q-1 -5 -3.5 -9t-6 -6t-7.5 -2z" />
    <glyph glyph-name="uni0203" unicode="&#x203;" horiz-adv-x="514" 
d="M231 -8q-47 0 -85 19t-60 51.5t-22 72.5q0 54 26.5 84.5t91 43t177.5 12.5h41v-37h-39q-99 0 -153.5 -8.5t-76 -30t-21.5 -60.5q0 -48 33.5 -78.5t90.5 -30.5q46 0 80.5 22.5t54.5 61t20 87.5v114q0 72 -28 105t-90 33q-40 0 -76.5 -11t-76.5 -34q-9 -5 -15.5 -4
t-10.5 5.5t-5.5 11t1 12.5t9.5 10q41 25 85 37t87 12q55 0 91 -19t53.5 -58t17.5 -100v-299q0 -10 -5 -16t-15 -6t-15.5 6t-5.5 16v105h11q-10 -40 -34 -69t-58.5 -44.5t-77.5 -15.5zM139 545q-7 0 -12.5 5.5t-4.5 14.5q5 56 24 94.5t49.5 58.5t69.5 20t69.5 -20t50 -58.5
t23.5 -94.5q1 -9 -4.5 -14.5t-12.5 -5.5q-6 0 -10.5 4.5t-5.5 12.5q-6 70 -35 105t-75 35t-75 -35t-35 -105q-1 -8 -5.5 -12.5t-10.5 -4.5z" />
    <glyph glyph-name="uni0204" unicode="&#x204;" horiz-adv-x="570" 
d="M121 0q-12 0 -18.5 6.5t-6.5 18.5v655q0 12 6.5 18.5t18.5 6.5h384q10 0 15.5 -5t5.5 -14q0 -10 -5.5 -15t-15.5 -5h-367v-289h347q10 0 15.5 -5t5.5 -14q0 -10 -5.5 -15t-15.5 -5h-347v-299h367q10 0 15.5 -5t5.5 -14q0 -10 -5.5 -15t-15.5 -5h-384zM360 766l-91 140
q-6 9 -5 16.5t5.5 12t11.5 6t14 -2t12 -13.5l75 -148q3 -6 2 -11t-5.5 -7t-9.5 -0.5t-9 7.5zM252 766l-91 140q-6 9 -5 16.5t5.5 12t11.5 6t14 -2t12 -13.5l75 -148q3 -6 2 -11t-5.5 -7t-9.5 -0.5t-9 7.5z" />
    <glyph glyph-name="uni0205" unicode="&#x205;" horiz-adv-x="523" 
d="M286 -8q-72 0 -124 30t-80.5 85.5t-28.5 132.5q0 76 28.5 132.5t79 88t116.5 31.5q47 0 83.5 -16t62 -46t39 -73t13.5 -97q0 -13 -5.5 -19.5t-16.5 -6.5h-373v37h373l-17 -12q0 61 -18 104.5t-53.5 67t-88.5 23.5q-58 0 -98.5 -27.5t-61 -74.5t-20.5 -107v-5
q0 -100 49.5 -154.5t138.5 -54.5q40 0 75 10.5t69 37.5q7 6 14.5 6.5t13 -3t8 -9t0.5 -12.5t-10 -13q-31 -26 -76 -41t-92 -15zM316 553l-69 176q-4 9 -1.5 15.5t8.5 10t13.5 3t14 -5.5t9.5 -16l51 -175q2 -7 -1 -11t-8 -5.5t-10 0.5t-7 8zM207 553l-69 176q-4 9 -1.5 15.5
t8.5 10t13.5 3t14 -5.5t9.5 -16l51 -175q2 -7 -1 -11t-8 -5.5t-10 0.5t-7 8z" />
    <glyph glyph-name="uni0206" unicode="&#x206;" horiz-adv-x="570" 
d="M121 0q-12 0 -18.5 6.5t-6.5 18.5v655q0 12 6.5 18.5t18.5 6.5h384q10 0 15.5 -5t5.5 -14q0 -10 -5.5 -15t-15.5 -5h-367v-289h347q10 0 15.5 -5t5.5 -14q0 -10 -5.5 -15t-15.5 -5h-347v-299h367q10 0 15.5 -5t5.5 -14q0 -10 -5.5 -15t-15.5 -5h-384zM180 758
q-7 0 -12 5.5t-4 14.5q14 81 58 117t98 36t98.5 -36t57.5 -117q2 -9 -3.5 -14.5t-12.5 -5.5q-3 0 -7 2t-6.5 6t-3.5 9q-12 67 -46.5 93.5t-76.5 26.5t-76.5 -26.5t-46.5 -93.5q-1 -5 -3.5 -9t-6 -6t-7.5 -2z" />
    <glyph glyph-name="uni0207" unicode="&#x207;" horiz-adv-x="523" 
d="M286 -8q-72 0 -124 30t-80.5 85.5t-28.5 132.5q0 76 28.5 132.5t79 88t116.5 31.5q47 0 83.5 -16t62 -46t39 -73t13.5 -97q0 -13 -5.5 -19.5t-16.5 -6.5h-373v37h373l-17 -12q0 61 -18 104.5t-53.5 67t-88.5 23.5q-58 0 -98.5 -27.5t-61 -74.5t-20.5 -107v-5
q0 -100 49.5 -154.5t138.5 -54.5q40 0 75 10.5t69 37.5q7 6 14.5 6.5t13 -3t8 -9t0.5 -12.5t-10 -13q-31 -26 -76 -41t-92 -15zM151 545q-7 0 -12.5 5.5t-4.5 14.5q5 56 24 94.5t49.5 58.5t69.5 20t69.5 -20t50 -58.5t23.5 -94.5q1 -9 -4.5 -14.5t-12.5 -5.5q-6 0 -10.5 4.5
t-5.5 12.5q-6 70 -35 105t-75 35t-75 -35t-35 -105q-1 -8 -5.5 -12.5t-10.5 -4.5z" />
    <glyph glyph-name="uni0208" unicode="&#x208;" horiz-adv-x="234" 
d="M117 -6q-10 0 -15.5 6t-5.5 16v673q0 11 5.5 16.5t15.5 5.5t15.5 -5.5t5.5 -16.5v-673q0 -10 -5 -16t-16 -6zM157 766l-91 140q-6 9 -5 16.5t5.5 12t11.5 6t14 -2t12 -13.5l75 -148q3 -6 2 -11t-5.5 -7t-9.5 -0.5t-9 7.5zM49 766l-91 140q-6 9 -5 16.5t5.5 12t11.5 6
t14 -2t12 -13.5l75 -148q3 -6 2 -11t-5.5 -7t-9.5 -0.5t-9 7.5z" />
    <glyph glyph-name="uni0209" unicode="&#x209;" horiz-adv-x="212" 
d="M106 -3q-10 0 -15.5 6t-5.5 16v446q0 11 5.5 16.5t15.5 5.5t15.5 -5.5t5.5 -16.5v-446q0 -10 -5 -16t-16 -6zM145 553l-69 176q-4 9 -1.5 15.5t8.5 10t13.5 3t14 -5.5t9.5 -16l51 -175q2 -7 -1 -11t-8 -5.5t-10 0.5t-7 8zM36 553l-69 176q-4 9 -1.5 15.5t8.5 10t13.5 3
t14 -5.5t9.5 -16l51 -175q2 -7 -1 -11t-8 -5.5t-10 0.5t-7 8z" />
    <glyph glyph-name="uni020A" unicode="&#x20a;" horiz-adv-x="234" 
d="M117 -6q-10 0 -15.5 6t-5.5 16v673q0 11 5.5 16.5t15.5 5.5t15.5 -5.5t5.5 -16.5v-673q0 -10 -5 -16t-16 -6zM-23 758q-7 0 -12 5.5t-4 14.5q14 81 58 117t98 36t98.5 -36t57.5 -117q2 -9 -3.5 -14.5t-12.5 -5.5q-3 0 -7 2t-6.5 6t-3.5 9q-12 67 -46.5 93.5t-76.5 26.5
t-76.5 -26.5t-46.5 -93.5q-1 -5 -3.5 -9t-6 -6t-7.5 -2z" />
    <glyph glyph-name="uni020B" unicode="&#x20b;" horiz-adv-x="212" 
d="M106 -3q-10 0 -15.5 6t-5.5 16v446q0 11 5.5 16.5t15.5 5.5t15.5 -5.5t5.5 -16.5v-446q0 -10 -5 -16t-16 -6zM-20 545q-7 0 -12.5 5.5t-4.5 14.5q5 56 24 94.5t49.5 58.5t69.5 20t69.5 -20t50 -58.5t23.5 -94.5q1 -9 -4.5 -14.5t-12.5 -5.5q-6 0 -10.5 4.5t-5.5 12.5
q-6 70 -35 105t-75 35t-75 -35t-35 -105q-1 -8 -5.5 -12.5t-10.5 -4.5z" />
    <glyph glyph-name="uni020C" unicode="&#x20c;" horiz-adv-x="751" 
d="M375 -8q-95 0 -164 44t-106.5 125t-37.5 192q0 84 21 150.5t61 113t97 71.5t129 25q96 0 165.5 -43.5t106.5 -124t37 -191.5q0 -84 -21.5 -151t-61.5 -114t-97 -72t-129 -25zM375 33q84 0 143 37.5t90 109t31 173.5q0 152 -68.5 235.5t-195.5 83.5q-83 0 -142 -37.5
t-90 -109t-31 -172.5q0 -151 69 -235.5t194 -84.5zM415 766l-91 140q-6 9 -5 16.5t5.5 12t11.5 6t14 -2t12 -13.5l75 -148q3 -6 2 -11t-5.5 -7t-9.5 -0.5t-9 7.5zM307 766l-91 140q-6 9 -5 16.5t5.5 12t11.5 6t14 -2t12 -13.5l75 -148q3 -6 2 -11t-5.5 -7t-9.5 -0.5t-9 7.5z
" />
    <glyph glyph-name="uni020D" unicode="&#x20d;" horiz-adv-x="538" 
d="M269 -8q-66 0 -114.5 31t-75 87t-26.5 132q0 57 15 103t43.5 79t68.5 50.5t89 17.5q66 0 114.5 -31t75 -87t26.5 -132q0 -57 -15 -103t-43.5 -79t-68 -50.5t-89.5 -17.5zM269 31q53 0 92 25t60 72.5t21 113.5q0 100 -46.5 155.5t-126.5 55.5q-53 0 -92 -25t-60 -72
t-21 -114q0 -100 47 -155.5t126 -55.5zM308 553l-69 176q-4 9 -1.5 15.5t8.5 10t13.5 3t14 -5.5t9.5 -16l51 -175q2 -7 -1 -11t-8 -5.5t-10 0.5t-7 8zM199 553l-69 176q-4 9 -1.5 15.5t8.5 10t13.5 3t14 -5.5t9.5 -16l51 -175q2 -7 -1 -11t-8 -5.5t-10 0.5t-7 8z" />
    <glyph glyph-name="uni020E" unicode="&#x20e;" horiz-adv-x="751" 
d="M375 -8q-95 0 -164 44t-106.5 125t-37.5 192q0 84 21 150.5t61 113t97 71.5t129 25q96 0 165.5 -43.5t106.5 -124t37 -191.5q0 -84 -21.5 -151t-61.5 -114t-97 -72t-129 -25zM375 33q84 0 143 37.5t90 109t31 173.5q0 152 -68.5 235.5t-195.5 83.5q-83 0 -142 -37.5
t-90 -109t-31 -172.5q0 -151 69 -235.5t194 -84.5zM235 758q-7 0 -12 5.5t-4 14.5q14 81 58 117t98 36t98.5 -36t57.5 -117q2 -9 -3.5 -14.5t-12.5 -5.5q-3 0 -7 2t-6.5 6t-3.5 9q-12 67 -46.5 93.5t-76.5 26.5t-76.5 -26.5t-46.5 -93.5q-1 -5 -3.5 -9t-6 -6t-7.5 -2z" />
    <glyph glyph-name="uni020F" unicode="&#x20f;" horiz-adv-x="538" 
d="M269 -8q-66 0 -114.5 31t-75 87t-26.5 132q0 57 15 103t43.5 79t68.5 50.5t89 17.5q66 0 114.5 -31t75 -87t26.5 -132q0 -57 -15 -103t-43.5 -79t-68 -50.5t-89.5 -17.5zM269 31q53 0 92 25t60 72.5t21 113.5q0 100 -46.5 155.5t-126.5 55.5q-53 0 -92 -25t-60 -72
t-21 -114q0 -100 47 -155.5t126 -55.5zM143 545q-7 0 -12.5 5.5t-4.5 14.5q5 56 24 94.5t49.5 58.5t69.5 20t69.5 -20t50 -58.5t23.5 -94.5q1 -9 -4.5 -14.5t-12.5 -5.5q-6 0 -10.5 4.5t-5.5 12.5q-6 70 -35 105t-75 35t-75 -35t-35 -105q-1 -8 -5.5 -12.5t-10.5 -4.5z" />
    <glyph glyph-name="uni0210" unicode="&#x210;" horiz-adv-x="654" 
d="M117 -6q-10 0 -15.5 6t-5.5 16v667q0 11 6 16.5t16 5.5h233q111 0 170 -51t59 -146q0 -61 -27 -104.5t-78.5 -66t-123.5 -22.5l11 12h8q38 0 65.5 -20t51.5 -65l115 -214q5 -8 4.5 -16t-5 -13t-11.5 -5q-9 0 -14.5 4.5t-9.5 11.5l-116 216q-28 52 -62 69t-93 17h-157
v-296q0 -10 -5 -16t-16 -6zM138 351h209q95 0 142 40t47 118q0 77 -47 117t-142 40h-209v-315zM374 766l-91 140q-6 9 -5 16.5t5.5 12t11.5 6t14 -2t12 -13.5l75 -148q3 -6 2 -11t-5.5 -7t-9.5 -0.5t-9 7.5zM266 766l-91 140q-6 9 -5 16.5t5.5 12t11.5 6t14 -2t12 -13.5
l75 -148q3 -6 2 -11t-5.5 -7t-9.5 -0.5t-9 7.5z" />
    <glyph glyph-name="uni0211" unicode="&#x211;" horiz-adv-x="327" 
d="M106 -6q-10 0 -15.5 6t-5.5 16v452q0 11 5.5 16.5t15.5 5.5t15 -5.5t5 -16.5v-97h-10q19 59 67.5 91t112.5 32q9 0 15.5 -3.5t6.5 -13.5t-5 -15.5t-17 -6.5l-12 -1q-74 -7 -115.5 -50t-41.5 -114v-274q0 -10 -5 -16t-16 -6zM243 553l-69 176q-4 9 -1.5 15.5t8.5 10
t13.5 3t14 -5.5t9.5 -16l51 -175q2 -7 -1 -11t-8 -5.5t-10 0.5t-7 8zM134 553l-69 176q-4 9 -1.5 15.5t8.5 10t13.5 3t14 -5.5t9.5 -16l51 -175q2 -7 -1 -11t-8 -5.5t-10 0.5t-7 8z" />
    <glyph glyph-name="uni0212" unicode="&#x212;" horiz-adv-x="654" 
d="M117 -6q-10 0 -15.5 6t-5.5 16v667q0 11 6 16.5t16 5.5h233q111 0 170 -51t59 -146q0 -61 -27 -104.5t-78.5 -66t-123.5 -22.5l11 12h8q38 0 65.5 -20t51.5 -65l115 -214q5 -8 4.5 -16t-5 -13t-11.5 -5q-9 0 -14.5 4.5t-9.5 11.5l-116 216q-28 52 -62 69t-93 17h-157
v-296q0 -10 -5 -16t-16 -6zM138 351h209q95 0 142 40t47 118q0 77 -47 117t-142 40h-209v-315zM194 758q-7 0 -12 5.5t-4 14.5q14 81 58 117t98 36t98.5 -36t57.5 -117q2 -9 -3.5 -14.5t-12.5 -5.5q-3 0 -7 2t-6.5 6t-3.5 9q-12 67 -46.5 93.5t-76.5 26.5t-76.5 -26.5
t-46.5 -93.5q-1 -5 -3.5 -9t-6 -6t-7.5 -2z" />
    <glyph glyph-name="uni0213" unicode="&#x213;" horiz-adv-x="327" 
d="M106 -6q-10 0 -15.5 6t-5.5 16v452q0 11 5.5 16.5t15.5 5.5t15 -5.5t5 -16.5v-97h-10q19 59 67.5 91t112.5 32q9 0 15.5 -3.5t6.5 -13.5t-5 -15.5t-17 -6.5l-12 -1q-74 -7 -115.5 -50t-41.5 -114v-274q0 -10 -5 -16t-16 -6zM78 545q-7 0 -12.5 5.5t-4.5 14.5
q5 56 24 94.5t49.5 58.5t69.5 20t69.5 -20t50 -58.5t23.5 -94.5q1 -9 -4.5 -14.5t-12.5 -5.5q-6 0 -10.5 4.5t-5.5 12.5q-6 70 -35 105t-75 35t-75 -35t-35 -105q-1 -8 -5.5 -12.5t-10.5 -4.5z" />
    <glyph glyph-name="uni0214" unicode="&#x214;" horiz-adv-x="720" 
d="M360 -8q-66 0 -116.5 18t-84 53.5t-51 87.5t-17.5 120v418q0 11 5.5 16.5t15.5 5.5t15.5 -5.5t5.5 -16.5v-412q0 -123 57.5 -183.5t169.5 -60.5q113 0 170 60.5t57 183.5v412q0 11 5.5 16.5t15.5 5.5t15.5 -5.5t5.5 -16.5v-418q0 -90 -30.5 -152.5t-90.5 -94.5t-148 -32z
M400 766l-91 140q-6 9 -5 16.5t5.5 12t11.5 6t14 -2t12 -13.5l75 -148q3 -6 2 -11t-5.5 -7t-9.5 -0.5t-9 7.5zM292 766l-91 140q-6 9 -5 16.5t5.5 12t11.5 6t14 -2t12 -13.5l75 -148q3 -6 2 -11t-5.5 -7t-9.5 -0.5t-9 7.5z" />
    <glyph glyph-name="uni0215" unicode="&#x215;" horiz-adv-x="545" 
d="M254 -8q-57 0 -95 21t-57 62t-19 102v291q0 11 5.5 16.5t15.5 5.5t15.5 -5.5t5.5 -16.5v-287q0 -76 31 -113t98 -37q73 0 118.5 48.5t45.5 127.5v261q0 11 5.5 16.5t15.5 5.5t15.5 -5.5t5.5 -16.5v-452q0 -22 -20 -22q-10 0 -15.5 6t-5.5 16v105h12q-19 -63 -67 -96
t-110 -33zM312 554l-69 176q-4 9 -1.5 15.5t8.5 10t13.5 3t14 -5.5t9.5 -16l51 -175q2 -7 -1 -11t-8 -5.5t-10 0.5t-7 8zM203 554l-69 176q-4 9 -1.5 15.5t8.5 10t13.5 3t14 -5.5t9.5 -16l51 -175q2 -7 -1 -11t-8 -5.5t-10 0.5t-7 8z" />
    <glyph glyph-name="uni0216" unicode="&#x216;" horiz-adv-x="720" 
d="M360 -8q-66 0 -116.5 18t-84 53.5t-51 87.5t-17.5 120v418q0 11 5.5 16.5t15.5 5.5t15.5 -5.5t5.5 -16.5v-412q0 -123 57.5 -183.5t169.5 -60.5q113 0 170 60.5t57 183.5v412q0 11 5.5 16.5t15.5 5.5t15.5 -5.5t5.5 -16.5v-418q0 -90 -30.5 -152.5t-90.5 -94.5t-148 -32z
M220 758q-7 0 -12 5.5t-4 14.5q14 81 58 117t98 36t98.5 -36t57.5 -117q2 -9 -3.5 -14.5t-12.5 -5.5q-3 0 -7 2t-6.5 6t-3.5 9q-12 67 -46.5 93.5t-76.5 26.5t-76.5 -26.5t-46.5 -93.5q-1 -5 -3.5 -9t-6 -6t-7.5 -2z" />
    <glyph glyph-name="uni0217" unicode="&#x217;" horiz-adv-x="545" 
d="M254 -8q-57 0 -95 21t-57 62t-19 102v291q0 11 5.5 16.5t15.5 5.5t15.5 -5.5t5.5 -16.5v-287q0 -76 31 -113t98 -37q73 0 118.5 48.5t45.5 127.5v261q0 11 5.5 16.5t15.5 5.5t15.5 -5.5t5.5 -16.5v-452q0 -22 -20 -22q-10 0 -15.5 6t-5.5 16v105h12q-19 -63 -67 -96
t-110 -33zM147 546q-7 0 -12.5 5.5t-4.5 14.5q5 56 24 94.5t49.5 58.5t69.5 20t69.5 -20t50 -58.5t23.5 -94.5q1 -9 -4.5 -14.5t-12.5 -5.5q-6 0 -10.5 4.5t-5.5 12.5q-6 70 -35 105t-75 35t-75 -35t-35 -105q-1 -8 -5.5 -12.5t-10.5 -4.5z" />
    <glyph glyph-name="uni0218" unicode="&#x218;" horiz-adv-x="600" 
d="M310 -8q-50 0 -95 9t-83.5 26t-69.5 42q-7 6 -9.5 13t0 13.5t7.5 10.5t12 4t14 -6q47 -37 99.5 -54t124.5 -17q100 0 150.5 40t50.5 106q0 54 -37 84.5t-121 47.5l-99 20q-94 19 -140 63t-46 119q0 45 17.5 81.5t49.5 63t76 41t97 14.5q66 0 121 -19.5t100 -60.5
q7 -6 9 -13.5t-0.5 -14t-7 -10t-11.5 -3.5t-14 7q-43 38 -91 55.5t-106 17.5q-59 0 -103 -19.5t-68.5 -55.5t-24.5 -84q0 -58 34 -91.5t110 -48.5l99 -20q102 -21 151 -61.5t49 -111.5q0 -42 -17 -76.5t-48.5 -59.5t-77 -38.5t-102.5 -13.5zM313 -241q-7 -9 -14.5 -10.5
t-12.5 2.5t-5.5 11.5t6.5 17.5q12 17 17.5 35.5t5.5 34.5l3 -9q-18 0 -29 11t-11 27q0 17 10 27.5t26 10.5q17 0 27.5 -12t10.5 -36q0 -17 -3.5 -37t-11 -39t-19.5 -34z" />
    <glyph glyph-name="uni0219" unicode="&#x219;" horiz-adv-x="475" 
d="M236 -8q-46 0 -89 13t-84 44q-5 4 -6.5 10t0 12t6 10.5t11 4.5t13.5 -5q38 -28 76 -39t76 -11q65 0 99.5 25t34.5 68q0 34 -22.5 53.5t-72.5 31.5l-83 20q-63 15 -92.5 46t-29.5 80q0 41 21.5 72t61 48t91.5 17q44 0 84.5 -14t68.5 -42q6 -6 7.5 -12.5t-0.5 -12.5t-7 -9
t-11.5 -2.5t-13.5 6.5q-28 24 -61 35.5t-68 11.5q-61 0 -95 -26.5t-34 -70.5q0 -34 21 -55t67 -32l83 -20q65 -16 97 -45t32 -78q0 -61 -49 -97.5t-132 -36.5zM239 -241q-7 -9 -14.5 -10.5t-12.5 2.5t-5.5 11.5t6.5 17.5q12 17 17.5 35.5t5.5 34.5l3 -9q-18 0 -29 11t-11 27
q0 17 10 27.5t26 10.5q17 0 27.5 -12t10.5 -36q0 -17 -3.5 -37t-11 -39t-19.5 -34z" />
    <glyph glyph-name="uni021A" unicode="&#x21a;" horiz-adv-x="586" 
d="M293 -6q-10 0 -15.5 6t-5.5 16v650h-253q-10 0 -16 5.5t-6 14.5t6 14t16 5h548q11 0 16.5 -5t5.5 -14q0 -10 -5.5 -15t-16.5 -5h-253v-650q0 -10 -5 -16t-16 -6zM296 -241q-7 -9 -14.5 -10.5t-12.5 2.5t-5.5 11.5t6.5 17.5q12 17 17.5 35.5t5.5 34.5l3 -9q-18 0 -29 11
t-11 27q0 17 10 27.5t26 10.5q17 0 27.5 -12t10.5 -36q0 -17 -3.5 -37t-11 -39t-19.5 -34z" />
    <glyph glyph-name="uni021B" unicode="&#x21b;" horiz-adv-x="320" 
d="M255 -8q-50 0 -84 19.5t-51 56t-17 88.5v292h-81q-10 0 -16 5t-6 13t6 13t16 5h81v135q0 11 5.5 16.5t15.5 5.5t15.5 -5.5t5.5 -16.5v-135h143q11 0 16.5 -5t5.5 -13t-5.5 -13t-16.5 -5h-143v-283q0 -65 26 -99.5t87 -34.5q21 0 34.5 4.5t22.5 4.5q6 0 10.5 -5t4.5 -14
q0 -5 -2.5 -10.5t-9.5 -7.5q-10 -4 -28.5 -7.5t-34.5 -3.5zM206 -241q-7 -9 -14.5 -10.5t-12.5 2.5t-5.5 11.5t6.5 17.5q12 17 17.5 35.5t5.5 34.5l3 -9q-18 0 -29 11t-11 27q0 17 10 27.5t26 10.5q17 0 27.5 -12t10.5 -36q0 -17 -3.5 -37t-11 -39t-19.5 -34z" />
    <glyph glyph-name="uni021F" unicode="&#x21f;" horiz-adv-x="553" 
d="M106 -6q-10 0 -15.5 6t-5.5 16v673q0 11 5.5 16.5t15.5 5.5t15.5 -5.5t5.5 -16.5v-323h-12q20 63 69 94.5t113 31.5q58 0 96.5 -20.5t57.5 -61.5t19 -102v-292q0 -10 -5.5 -16t-15.5 -6t-15.5 6t-5.5 16v288q0 77 -31 113t-100 36q-77 0 -123.5 -47.5t-46.5 -127.5v-262
q0 -22 -21 -22zM278 758q-9 0 -17 3.5t-15 13.5l-101 142q-5 7 -4 13t6 9t11.5 2t12.5 -8l107 -131l107 131q6 7 12.5 8t11.5 -2t6 -9t-4 -13l-101 -142q-7 -10 -15 -13.5t-17 -3.5z" />
    <glyph glyph-name="uni0226" unicode="&#x226;" horiz-adv-x="716" 
d="M62 -6q-10 0 -15 4t-5 11.5t4 16.5l286 664q5 11 12 16t14 5q8 0 15 -5t11 -16l286 -664q4 -9 4 -16.5t-4 -11.5t-14 -4t-16.5 6t-10.5 15l-81 189l27 -9h-436l28 9l-81 -189q-4 -11 -11 -16t-13 -5zM357 648l-179 -420l-22 6h402l-20 -6l-179 420h-2zM359 815
q-16 0 -25 9.5t-9 25.5q0 17 9 25.5t25 8.5q17 0 25.5 -8.5t8.5 -25.5q0 -16 -8.5 -25.5t-25.5 -9.5z" />
    <glyph glyph-name="uni0227" unicode="&#x227;" horiz-adv-x="514" 
d="M231 -8q-47 0 -85 19t-60 51.5t-22 72.5q0 54 26.5 84.5t91 43t177.5 12.5h41v-37h-39q-99 0 -153.5 -8.5t-76 -30t-21.5 -60.5q0 -48 33.5 -78.5t90.5 -30.5q46 0 80.5 22.5t54.5 61t20 87.5v114q0 72 -28 105t-90 33q-40 0 -76.5 -11t-76.5 -34q-9 -5 -15.5 -4
t-10.5 5.5t-5.5 11t1 12.5t9.5 10q41 25 85 37t87 12q55 0 91 -19t53.5 -58t17.5 -100v-299q0 -10 -5 -16t-15 -6t-15.5 6t-5.5 16v105h11q-10 -40 -34 -69t-58.5 -44.5t-77.5 -15.5zM265 616q-16 0 -25.5 9.5t-9.5 25.5q0 17 9.5 25.5t25.5 8.5q17 0 26 -8.5t9 -25.5
q0 -16 -9 -25.5t-26 -9.5z" />
    <glyph glyph-name="uni0228" unicode="&#x228;" horiz-adv-x="570" 
d="M121 0q-12 0 -18.5 6.5t-6.5 18.5v655q0 12 6.5 18.5t18.5 6.5h384q10 0 15.5 -5t5.5 -14q0 -10 -5.5 -15t-15.5 -5h-367v-289h347q10 0 15.5 -5t5.5 -14q0 -10 -5.5 -15t-15.5 -5h-347v-299h367q10 0 15.5 -5t5.5 -14q0 -10 -5.5 -15t-15.5 -5h-384zM325 -190
q-17 0 -35.5 3t-32.5 10q-8 4 -10.5 11t0 13.5t8.5 9.5t15 -1q11 -5 25.5 -7.5t33.5 -2.5q27 0 44.5 11t17.5 32q0 15 -9.5 23.5t-29.5 8.5q-8 0 -16 -1t-19 -4q-10 -3 -15 -3.5t-10 2.5q-4 3 -4.5 8.5t0.5 14.5l13 82h38l-13 -75l-18 2q12 3 23.5 5t21.5 2q32 0 55 -17
t23 -48q0 -35 -29.5 -57t-76.5 -22z" />
    <glyph glyph-name="uni022A" unicode="&#x22a;" horiz-adv-x="751" 
d="M375 -8q-95 0 -164 44t-106.5 125t-37.5 192q0 84 21 150.5t61 113t97 71.5t129 25q96 0 165.5 -43.5t106.5 -124t37 -191.5q0 -84 -21.5 -151t-61.5 -114t-97 -72t-129 -25zM375 33q84 0 143 37.5t90 109t31 173.5q0 152 -68.5 235.5t-195.5 83.5q-83 0 -142 -37.5
t-90 -109t-31 -172.5q0 -151 69 -235.5t194 -84.5zM254 927q-10 0 -16 5t-6 14t6 14t16 5h242q11 0 16.5 -5t5.5 -14t-5.5 -14t-16.5 -5h-242zM295 803q-16 0 -25 8.5t-9 24.5t9 24.5t25 8.5t24.5 -8.5t8.5 -24.5t-8.5 -24.5t-24.5 -8.5zM456 803q-16 0 -25 8.5t-9 24.5
t9 24.5t25 8.5t24.5 -8.5t8.5 -24.5t-8.5 -24.5t-24.5 -8.5z" />
    <glyph glyph-name="uni022B" unicode="&#x22b;" horiz-adv-x="538" 
d="M269 -8q-66 0 -114.5 31t-75 87t-26.5 132q0 57 15 103t43.5 79t68.5 50.5t89 17.5q66 0 114.5 -31t75 -87t26.5 -132q0 -57 -15 -103t-43.5 -79t-68 -50.5t-89.5 -17.5zM269 31q53 0 92 25t60 72.5t21 113.5q0 100 -46.5 155.5t-126.5 55.5q-53 0 -92 -25t-60 -72
t-21 -114q0 -100 47 -155.5t126 -55.5zM148 706q-10 0 -16 5t-6 14t6 14t16 5h242q11 0 16.5 -5t5.5 -14t-5.5 -14t-16.5 -5h-242zM189 582q-16 0 -25 8.5t-9 24.5t9 24.5t25 8.5t24.5 -8.5t8.5 -24.5t-8.5 -24.5t-24.5 -8.5zM350 582q-16 0 -25 8.5t-9 24.5t9 24.5t25 8.5
t24.5 -8.5t8.5 -24.5t-8.5 -24.5t-24.5 -8.5z" />
    <glyph glyph-name="uni022C" unicode="&#x22c;" horiz-adv-x="751" 
d="M375 -8q-95 0 -164 44t-106.5 125t-37.5 192q0 84 21 150.5t61 113t97 71.5t129 25q96 0 165.5 -43.5t106.5 -124t37 -191.5q0 -84 -21.5 -151t-61.5 -114t-97 -72t-129 -25zM375 33q84 0 143 37.5t90 109t31 173.5q0 152 -68.5 235.5t-195.5 83.5q-83 0 -142 -37.5
t-90 -109t-31 -172.5q0 -151 69 -235.5t194 -84.5zM254 927q-10 0 -16 5t-6 14t6 14t16 5h242q11 0 16.5 -5t5.5 -14t-5.5 -14t-16.5 -5h-242zM246 767q-7 1 -11 7t-2 17q8 37 28.5 55t50.5 18q28 0 48 -15t38.5 -30t39.5 -15q19 0 30.5 9.5t15.5 31.5q2 11 7.5 16t13.5 4
t11 -7t1 -17q-7 -37 -28 -55t-50 -18q-28 0 -48.5 15t-39 30t-39.5 15q-19 0 -30 -9.5t-16 -31.5q-2 -10 -7 -15.5t-13 -4.5z" />
    <glyph glyph-name="uni022D" unicode="&#x22d;" horiz-adv-x="538" 
d="M269 -8q-66 0 -114.5 31t-75 87t-26.5 132q0 57 15 103t43.5 79t68.5 50.5t89 17.5q66 0 114.5 -31t75 -87t26.5 -132q0 -57 -15 -103t-43.5 -79t-68 -50.5t-89.5 -17.5zM269 31q53 0 92 25t60 72.5t21 113.5q0 100 -46.5 155.5t-126.5 55.5q-53 0 -92 -25t-60 -72
t-21 -114q0 -100 47 -155.5t126 -55.5zM148 706q-10 0 -16 5t-6 14t6 14t16 5h242q11 0 16.5 -5t5.5 -14t-5.5 -14t-16.5 -5h-242zM140 546q-7 1 -11.5 7t-1.5 17q8 37 28.5 55t50.5 18q28 0 48 -15t38.5 -30t39.5 -15q19 0 29.5 9.5t16.5 31.5q2 11 7.5 16t13.5 4t11.5 -7
t0.5 -17q-7 -37 -28 -55t-50 -18q-28 0 -48.5 15t-39 30t-39.5 15q-19 0 -29.5 -9.5t-16.5 -31.5q-2 -10 -7 -15.5t-13 -4.5z" />
    <glyph glyph-name="uni0230" unicode="&#x230;" horiz-adv-x="751" 
d="M375 -8q-95 0 -164 44t-106.5 125t-37.5 192q0 84 21 150.5t61 113t97 71.5t129 25q96 0 165.5 -43.5t106.5 -124t37 -191.5q0 -84 -21.5 -151t-61.5 -114t-97 -72t-129 -25zM375 33q84 0 143 37.5t90 109t31 173.5q0 152 -68.5 235.5t-195.5 83.5q-83 0 -142 -37.5
t-90 -109t-31 -172.5q0 -151 69 -235.5t194 -84.5zM254 927q-10 0 -16 5t-6 14t6 14t16 5h242q11 0 16.5 -5t5.5 -14t-5.5 -14t-16.5 -5h-242zM376 803q-16 0 -25 8.5t-9 24.5t9 24.5t25 8.5t24.5 -8.5t8.5 -24.5t-8.5 -24.5t-24.5 -8.5z" />
    <glyph glyph-name="uni0231" unicode="&#x231;" horiz-adv-x="538" 
d="M269 -8q-66 0 -114.5 31t-75 87t-26.5 132q0 57 15 103t43.5 79t68.5 50.5t89 17.5q66 0 114.5 -31t75 -87t26.5 -132q0 -57 -15 -103t-43.5 -79t-68 -50.5t-89.5 -17.5zM269 31q53 0 92 25t60 72.5t21 113.5q0 100 -46.5 155.5t-126.5 55.5q-53 0 -92 -25t-60 -72
t-21 -114q0 -100 47 -155.5t126 -55.5zM148 706q-10 0 -16 5t-6 14t6 14t16 5h242q11 0 16.5 -5t5.5 -14t-5.5 -14t-16.5 -5h-242zM270 582q-16 0 -25 8.5t-9 24.5t9 24.5t25 8.5t24.5 -8.5t8.5 -24.5t-8.5 -24.5t-24.5 -8.5z" />
    <glyph glyph-name="uni0232" unicode="&#x232;" horiz-adv-x="577" 
d="M288 -6q-10 0 -15.5 6t-5.5 17v350l11 -39l-260 351q-6 9 -6 16.5t5 11.5t12 4q8 0 14 -3t11 -11l243 -329h-15l243 329q5 8 10.5 11t13.5 3q7 0 11.5 -4t5 -11.5t-6.5 -16.5l-260 -351l10 39v-350q0 -23 -21 -23zM154 822q-21 0 -21 19q0 9 5.5 14t15.5 5h268
q21 0 21 -19q0 -9 -5.5 -14t-15.5 -5h-268z" />
    <glyph glyph-name="uni0233" unicode="&#x233;" horiz-adv-x="504" 
d="M180 -186q-9 0 -14 5t-5 13t3 16l69 159v-20l-200 468q-4 10 -3 17.5t6.5 12.5t15.5 5q9 0 13.5 -4.5t8.5 -12.5l190 -459h-24l191 459q4 9 8.5 13t14.5 4t14.5 -5t5 -12.5t-3.5 -16.5l-266 -624q-4 -10 -9 -14t-15 -4zM133 633q-21 0 -21 19q0 9 5.5 14t15.5 5h238
q21 0 21 -19q0 -9 -5.5 -14t-15.5 -5h-238z" />
    <glyph glyph-name="uni0237" unicode="&#x237;" horiz-adv-x="215" 
d="M-36 -192q-9 0 -14.5 3.5t-7.5 9.5t-1 11.5t6 9.5t14 4q64 2 95.5 32.5t31.5 99.5v490q0 11 5.5 16.5t15.5 5.5t15.5 -5.5t5.5 -16.5v-489q0 -58 -20.5 -96t-57.5 -56.5t-88 -18.5z" />
    <glyph glyph-name="uni0253" unicode="&#x253;" horiz-adv-x="568" 
d="M300 -8q-70 0 -118.5 36.5t-65.5 97.5h11v-110q0 -10 -5.5 -16t-15.5 -6t-15.5 6t-5.5 16v547q0 73 36.5 111t105.5 38q26 0 38 -4.5t12 -16.5q0 -8 -5.5 -13.5t-13.5 -5.5q-6 0 -13 1t-16 1q-51 0 -76.5 -28t-25.5 -81v-207h-11q17 62 65.5 98t118.5 36
q66 0 114.5 -30.5t74.5 -86.5t26 -133q0 -76 -26.5 -132.5t-74.5 -87t-114 -30.5zM299 31q53 0 92 25t60 72.5t21 113.5q0 100 -46.5 155.5t-126.5 55.5q-53 0 -92 -25t-60 -72t-21 -114q0 -100 47 -155.5t126 -55.5z" />
    <glyph glyph-name="uni0257" unicode="&#x257;" horiz-adv-x="568" 
d="M268 -8q-65 0 -113.5 30.5t-75 87t-26.5 132.5q0 77 26 133t74.5 86.5t114.5 30.5q70 0 119 -36t65 -98h-11v205q0 73 36.5 111t105.5 38q26 0 38 -4.5t12 -16.5q0 -8 -5.5 -13.5t-13.5 -5.5q-6 0 -13 1t-16 1q-51 0 -76.5 -28t-25.5 -81v-549q0 -10 -5.5 -16t-15.5 -6
t-15.5 6t-5.5 16v110h11q-16 -61 -65 -97.5t-119 -36.5zM269 31q53 0 92 25t60 72.5t21 113.5q0 100 -46.5 155.5t-126.5 55.5q-53 0 -92 -25t-60 -72t-21 -114q0 -100 47 -155.5t126 -55.5z" />
    <glyph glyph-name="uni0259" unicode="&#x259;" horiz-adv-x="523" 
d="M252 -8q-64 0 -110 27.5t-70 80.5t-24 127q0 11 6 17t16 6h374v-37h-374l19 13q0 -63 18.5 -106.5t55 -66.5t90.5 -23q53 0 92 24.5t60.5 71t21.5 111.5v6q0 99 -49.5 154.5t-138.5 55.5q-40 0 -76 -12t-71 -38q-8 -6 -14.5 -6t-11 4t-6.5 10t0 12.5t8 11.5
q32 27 77.5 42t91.5 15q72 0 124.5 -30t80.5 -85t28 -132t-27.5 -134t-76.5 -88t-114 -31z" />
    <glyph glyph-name="uni0292" unicode="&#x292;" horiz-adv-x="476" 
d="M224 -188q-57 0 -106.5 13.5t-84.5 40.5q-7 5 -8.5 11.5t0 12.5t6 10t11.5 4t14 -6q35 -25 76 -36t92 -11q86 0 130 42.5t44 123.5q0 71 -42.5 110t-119.5 39h-95q-10 0 -13.5 4.5t-1 12t8.5 14.5l230 263v-13h-311q-10 0 -16 5t-6 14q0 18 22 18h342q9 0 13.5 -3.5t5 -9
t-1.5 -11.5t-7 -11l-235 -266v21h63q66 0 112 -22t70.5 -64t24.5 -101q0 -64 -25.5 -110t-74 -70.5t-117.5 -24.5z" />
    <glyph glyph-name="uni02B9" unicode="&#x2b9;" horiz-adv-x="202" 
d="M102 434q-6 0 -10 4.5t-5 12.5l-11 233q-1 11 6.5 19t18.5 8t18.5 -7.5t6.5 -19.5l-9 -233q0 -9 -4.5 -13t-10.5 -4z" />
    <glyph glyph-name="uni02BA" unicode="&#x2ba;" horiz-adv-x="342" 
d="M102 434q-6 0 -10 4.5t-5 12.5l-11 233q-1 11 6.5 19t18.5 8q8 0 13.5 -3.5t9 -9.5t2.5 -14l-9 -233q0 -9 -4.5 -13t-10.5 -4zM242 434q-6 0 -10 4.5t-5 12.5l-11 233q-1 11 6.5 19t18.5 8q8 0 13.5 -3.5t9 -9.5t2.5 -14l-9 -233q0 -9 -4.5 -13t-10.5 -4z" />
    <glyph glyph-name="uni02BB" unicode="&#x2bb;" horiz-adv-x="500" 
d="M251 567q-17 0 -27.5 12t-10.5 36q0 17 3.5 37t11.5 39.5t19 33.5q7 9 14.5 10.5t12.5 -2.5t5.5 -11.5t-6.5 -17.5q-12 -17 -17.5 -35.5t-5.5 -34.5l-3 9q18 0 29 -10.5t11 -27.5q0 -16 -10 -27t-26 -11z" />
    <glyph glyph-name="uni02BC" unicode="&#x2bc;" horiz-adv-x="300" 
d="M153 588q-7 -9 -14.5 -10.5t-12.5 2.5t-5.5 11.5t6.5 17.5q12 17 17.5 35.5t5.5 34.5l3 -9q-18 0 -29 11t-11 27q0 17 10 27.5t26 10.5q17 0 27.5 -12t10.5 -36q0 -17 -3.5 -37t-11 -39t-19.5 -34z" />
    <glyph glyph-name="uni02BE" unicode="&#x2be;" horiz-adv-x="500" 
d="M269 557q-12 -2 -18.5 3t-6.5 13q0 9 6 13t17 7q19 5 29.5 21.5t10.5 35.5t-10.5 35.5t-29.5 21.5q-11 3 -17 7t-6 12t6.5 13.5t18.5 3.5q35 -7 56.5 -33t21.5 -60t-21.5 -60t-56.5 -33z" />
    <glyph glyph-name="uni02BF" unicode="&#x2bf;" horiz-adv-x="500" 
d="M231 557q-35 7 -56.5 33t-21.5 60t21.5 60.5t56.5 32.5q12 2 18.5 -3t6.5 -13q0 -9 -6 -13t-17 -7q-19 -5 -29.5 -21t-10.5 -36q0 -19 10.5 -35t29.5 -22q11 -3 17 -7t6 -12t-6.5 -13t-18.5 -4z" />
    <glyph glyph-name="circumflex" unicode="&#x2c6;" horiz-adv-x="452" 
d="M349 568q4 -8 2 -14t-7.5 -8.5t-11.5 -1t-10 7.5l-96 158l-96 -158q-4 -6 -10 -7.5t-11.5 1t-7.5 8.5t2 14l93 170q6 11 13.5 15.5t16.5 4.5t16.5 -4.5t13.5 -15.5z" />
    <glyph glyph-name="caron" unicode="&#x2c7;" horiz-adv-x="452" 
d="M226 540q-9 0 -16.5 4.5t-13.5 15.5l-93 170q-4 8 -2 14t7.5 8.5t11.5 1t10 -7.5l96 -158l96 158q4 6 10 7.5t11.5 -1t7.5 -8.5t-2 -14l-93 -170q-6 -11 -13.5 -15.5t-16.5 -4.5z" />
    <glyph glyph-name="uni02C8" unicode="&#x2c8;" horiz-adv-x="500" 
d="M250 590q-10 0 -15.5 6t-5.5 16v166q0 22 21 22q10 0 15.5 -5.5t5.5 -16.5v-166q0 -22 -21 -22z" />
    <glyph glyph-name="uni02C9" unicode="&#x2c9;" horiz-adv-x="500" 
d="M125 633q-21 0 -21 19q0 9 5.5 14t15.5 5h250q21 0 21 -19q0 -9 -5.5 -14t-15.5 -5h-250z" />
    <glyph glyph-name="uni02CA" unicode="&#x2ca;" horiz-adv-x="500" 
d="M270 552q-4 -6 -10 -7.5t-12 1t-8 8.5t2 14l91 175q5 10 12.5 13t14.5 1.5t12 -6.5t6 -12.5t-4 -15.5z" />
    <glyph glyph-name="uni02CB" unicode="&#x2cb;" horiz-adv-x="500" 
d="M230 552l-104 171q-5 8 -4 15.5t6 12.5t12 6.5t14.5 -1.5t12.5 -13l91 -175q4 -8 2 -14t-8 -8.5t-12 -1t-10 7.5z" />
    <glyph glyph-name="uni02CC" unicode="&#x2cc;" horiz-adv-x="500" 
d="M250 -276q-10 0 -15.5 6t-5.5 16v169q0 22 21 22q10 0 15.5 -5.5t5.5 -16.5v-169q0 -22 -21 -22z" />
    <glyph glyph-name="breve" unicode="&#x2d8;" horiz-adv-x="486" 
d="M243 547q-39 0 -69 20t-49 58.5t-25 94.5q-1 9 4.5 14.5t12.5 5.5q6 0 10.5 -4.5t5.5 -12.5q7 -70 35.5 -105t74.5 -35t75.5 35t34.5 105q1 8 5.5 12.5t10.5 4.5q7 0 12.5 -5.5t4.5 -14.5q-5 -56 -24 -94.5t-49.5 -58.5t-69.5 -20z" />
    <glyph glyph-name="dotaccent" unicode="&#x2d9;" horiz-adv-x="270" 
d="M135 616q-16 0 -25.5 9.5t-9.5 25.5q0 17 9.5 25.5t25.5 8.5q17 0 26 -8.5t9 -25.5q0 -16 -9 -25.5t-26 -9.5z" />
    <glyph glyph-name="ring" unicode="&#x2da;" horiz-adv-x="424" 
d="M212 547q-31 0 -56.5 15t-40.5 40t-15 55q0 31 15 55.5t40.5 39.5t56.5 15q32 0 57 -15t40 -39.5t15 -55.5q0 -30 -15 -55t-40 -40t-57 -15zM212 579q35 0 56.5 22.5t21.5 55.5t-21.5 55.5t-56.5 22.5q-34 0 -56 -22.5t-22 -55.5t22 -55.5t56 -22.5z" />
    <glyph glyph-name="ogonek" unicode="&#x2db;" horiz-adv-x="361" 
d="M194 -190q-41 0 -67.5 25t-26.5 67q0 38 23.5 72.5t66.5 56.5l21 -31q-15 -6 -31.5 -19t-28.5 -32t-12 -43q0 -31 17.5 -45.5t42.5 -14.5q11 0 20.5 2t18.5 5q10 3 15.5 -0.5t7 -10.5t-1.5 -13.5t-10 -9.5q-14 -5 -27.5 -7t-27.5 -2z" />
    <glyph glyph-name="tilde" unicode="&#x2dc;" horiz-adv-x="532" 
d="M115 592q-7 0 -11.5 5t-3.5 15q4 26 12 45.5t20 33t27.5 20.5t34.5 7q24 0 42.5 -13t35 -29.5t32.5 -29.5t34 -13q24 0 39.5 19.5t22.5 55.5q2 8 6.5 11.5t10.5 3.5q7 0 12 -5t3 -15q-5 -34 -18 -57.5t-32 -36t-44 -12.5q-24 0 -42.5 13t-35 29.5t-32.5 29.5t-34 13
q-24 0 -39.5 -19.5t-22.5 -55.5q-1 -7 -6 -11t-11 -4z" />
    <glyph glyph-name="hungarumlaut" unicode="&#x2dd;" horiz-adv-x="407" 
d="M236 553q-2 -6 -7 -8t-10 -0.5t-8 5.5t-1 11l51 175q3 11 9.5 16t14 5.5t13.5 -3t8.5 -10t-1.5 -15.5zM127 553q-2 -6 -7 -8t-10 -0.5t-8 5.5t-1 11l51 175q3 11 9.5 16t14 5.5t13.5 -3t8.5 -10t-1.5 -15.5z" />
    <glyph glyph-name="gravecomb" unicode="&#x300;" 
d="M-20 552l-104 171q-5 8 -4 15.5t6 12.5t12 6.5t14.5 -1.5t12.5 -13l91 -175q4 -8 2 -14t-8 -8.5t-12 -1t-10 7.5z" />
    <glyph glyph-name="acutecomb" unicode="&#x301;" 
d="M20 552q-4 -6 -10 -7.5t-12 1t-8 8.5t2 14l91 175q5 10 12.5 13t14.5 1.5t12 -6.5t6 -12.5t-4 -15.5z" />
    <glyph glyph-name="uni0302" unicode="&#x302;" 
d="M123 568q4 -8 2 -14t-7.5 -8.5t-11.5 -1t-10 7.5l-96 158l-96 -158q-4 -6 -10 -7.5t-11.5 1t-7.5 8.5t2 14l93 170q6 11 13.5 15.5t16.5 4.5t16.5 -4.5t13.5 -15.5z" />
    <glyph glyph-name="tildecomb" unicode="&#x303;" 
d="M-151 592q-7 0 -11.5 5t-3.5 15q4 26 12 45.5t20 33t27.5 20.5t34.5 7q24 0 42.5 -13t35 -29.5t32.5 -29.5t34 -13q24 0 39.5 19.5t22.5 55.5q2 8 6.5 11.5t10.5 3.5q7 0 12 -5t3 -15q-5 -34 -18 -57.5t-32 -36t-44 -12.5q-24 0 -42.5 13t-35 29.5t-32.5 29.5t-34 13
q-24 0 -39.5 -19.5t-22.5 -55.5q-1 -7 -6 -11t-11 -4z" />
    <glyph glyph-name="uni0304" unicode="&#x304;" 
d="M-119 633q-21 0 -21 19q0 9 5.5 14t15.5 5h238q21 0 21 -19q0 -9 -5.5 -14t-15.5 -5h-238z" />
    <glyph glyph-name="uni0306" unicode="&#x306;" 
d="M0 547q-39 0 -69 20t-49 58.5t-25 94.5q-1 9 4.5 14.5t12.5 5.5q6 0 10.5 -4.5t5.5 -12.5q7 -70 35.5 -105t74.5 -35t75.5 35t34.5 105q1 8 5.5 12.5t10.5 4.5q7 0 12.5 -5.5t4.5 -14.5q-5 -56 -24 -94.5t-49.5 -58.5t-69.5 -20z" />
    <glyph glyph-name="uni0307" unicode="&#x307;" 
d="M0 616q-16 0 -25.5 9.5t-9.5 25.5q0 17 9.5 25.5t25.5 8.5q17 0 26 -8.5t9 -25.5q0 -16 -9 -25.5t-26 -9.5z" />
    <glyph glyph-name="uni0308" unicode="&#x308;" 
d="M81 617q-16 0 -25 8.5t-9 24.5t9 24.5t25 8.5t24.5 -8.5t8.5 -24.5t-8.5 -24.5t-24.5 -8.5zM-80 617q-16 0 -25 8.5t-9 24.5t9 24.5t25 8.5t24.5 -8.5t8.5 -24.5t-8.5 -24.5t-24.5 -8.5z" />
    <glyph glyph-name="hookabovecomb" unicode="&#x309;" 
d="M0 543q-8 0 -13 4.5t-5 13.5q0 28 10.5 46t23.5 30t23.5 23.5t10.5 26.5t-12.5 23t-39.5 8q-11 0 -25 -2.5t-26 -7.5q-11 -4 -17 -2t-8 9q-2 8 0.5 14.5t13.5 11.5q14 7 31 10t35 3q42 0 65.5 -17t23.5 -48q0 -25 -11 -39.5t-25.5 -26t-25.5 -25.5t-11 -37
q0 -9 -4.5 -13.5t-13.5 -4.5z" />
    <glyph glyph-name="uni030A" unicode="&#x30a;" 
d="M0 547q-31 0 -56.5 15t-40.5 40t-15 55q0 31 15 55.5t40.5 39.5t56.5 15q32 0 57 -15t40 -39.5t15 -55.5q0 -30 -15 -55t-40 -40t-57 -15zM0 579q35 0 56.5 22.5t21.5 55.5t-21.5 55.5t-56.5 22.5q-34 0 -56 -22.5t-22 -55.5t22 -55.5t56 -22.5z" />
    <glyph glyph-name="uni030B" unicode="&#x30b;" 
d="M70 553q-2 -6 -7 -8t-10 -0.5t-8 5.5t-1 11l51 175q3 11 9.5 16t14 5.5t13.5 -3t8.5 -10t-1.5 -15.5zM-39 553q-2 -6 -7 -8t-10 -0.5t-8 5.5t-1 11l51 175q3 11 9.5 16t14 5.5t13.5 -3t8.5 -10t-1.5 -15.5z" />
    <glyph glyph-name="uni030C" unicode="&#x30c;" 
d="M0 540q-9 0 -16.5 4.5t-13.5 15.5l-93 170q-4 8 -2 14t7.5 8.5t11.5 1t10 -7.5l96 -158l96 158q4 6 10 7.5t11.5 -1t7.5 -8.5t-2 -14l-93 -170q-6 -11 -13.5 -15.5t-16.5 -4.5z" />
    <glyph glyph-name="uni030F" unicode="&#x30f;" 
d="M39 553l-69 176q-4 9 -1.5 15.5t8.5 10t13.5 3t14 -5.5t9.5 -16l51 -175q2 -7 -1 -11t-8 -5.5t-10 0.5t-7 8zM-70 553l-69 176q-4 9 -1.5 15.5t8.5 10t13.5 3t14 -5.5t9.5 -16l51 -175q2 -7 -1 -11t-8 -5.5t-10 0.5t-7 8z" />
    <glyph glyph-name="uni0311" unicode="&#x311;" 
d="M-126 545q-7 0 -12.5 5.5t-4.5 14.5q5 56 24 94.5t49.5 58.5t69.5 20t69.5 -20t50 -58.5t23.5 -94.5q1 -9 -4.5 -14.5t-12.5 -5.5q-6 0 -10.5 4.5t-5.5 12.5q-6 70 -35 105t-75 35t-75 -35t-35 -105q-1 -8 -5.5 -12.5t-10.5 -4.5z" />
    <glyph glyph-name="uni0312" unicode="&#x312;" 
d="M1 567q-17 0 -27.5 12t-10.5 36q0 17 3.5 37t11.5 39.5t19 33.5q7 9 14.5 10.5t12.5 -2.5t5.5 -11.5t-6.5 -17.5q-12 -17 -17.5 -35.5t-5.5 -34.5l-3 9q18 0 29 -10.5t11 -27.5q0 -16 -10 -27t-26 -11z" />
    <glyph glyph-name="uni031B" unicode="&#x31b;" 
d="M14 446l-15 13v25q36 0 59.5 8t37 22t18.5 35.5t5 48.5q0 24 20 24q10 0 15 -5.5t5 -18.5q0 -72 -37 -110.5t-108 -41.5z" />
    <glyph glyph-name="dotbelowcomb" unicode="&#x323;" 
d="M0 -175q-16 0 -25.5 9.5t-9.5 25.5q0 17 9.5 25.5t25.5 8.5q17 0 26 -8.5t9 -25.5q0 -16 -9 -25.5t-26 -9.5z" />
    <glyph glyph-name="uni0324" unicode="&#x324;" 
d="M81 -174q-16 0 -25 8.5t-9 24.5t9 24.5t25 8.5t24.5 -8.5t8.5 -24.5t-8.5 -24.5t-24.5 -8.5zM-80 -174q-16 0 -25 8.5t-9 24.5t9 24.5t25 8.5t24.5 -8.5t8.5 -24.5t-8.5 -24.5t-24.5 -8.5z" />
    <glyph glyph-name="uni0326" unicode="&#x326;" 
d="M3 -241q-7 -9 -14.5 -10.5t-12.5 2.5t-5.5 11.5t6.5 17.5q12 17 17.5 35.5t5.5 34.5l3 -9q-18 0 -29 11t-11 27q0 17 10 27.5t26 10.5q17 0 27.5 -12t10.5 -36q0 -17 -3.5 -37t-11 -39t-19.5 -34z" />
    <glyph glyph-name="uni0327" unicode="&#x327;" 
d="M5 -190q-17 0 -35.5 3t-32.5 10q-8 4 -10.5 11t0 13.5t8.5 9.5t15 -1q11 -5 25.5 -7.5t33.5 -2.5q27 0 44.5 11t17.5 32q0 15 -9.5 23.5t-29.5 8.5q-8 0 -16 -1t-19 -4q-10 -3 -15 -3.5t-10 2.5q-4 3 -4.5 8.5t0.5 14.5l13 82h38l-13 -75l-18 2q12 3 23.5 5t21.5 2
q32 0 55 -17t23 -48q0 -35 -29.5 -57t-76.5 -22z" />
    <glyph glyph-name="uni0328" unicode="&#x328;" 
d="M-17 -190q-41 0 -67.5 25t-26.5 67q0 38 23.5 72.5t66.5 56.5l21 -31q-15 -6 -31.5 -19t-28.5 -32t-12 -43q0 -31 17.5 -45.5t42.5 -14.5q11 0 20.5 2t18.5 5q10 3 15.5 -0.5t7 -10.5t-1.5 -13.5t-10 -9.5q-14 -5 -27.5 -7t-27.5 -2z" />
    <glyph glyph-name="uni032E" unicode="&#x32e;" 
d="M0 -215q-59 0 -96.5 35.5t-46.5 97.5q-1 11 3.5 16t11.5 6q5 1 8.5 -1t6 -6t3.5 -11q7 -48 35.5 -74.5t74.5 -26.5t74.5 26.5t35.5 74.5q2 11 6.5 15t11.5 3q8 -1 12.5 -6t2.5 -16q-9 -62 -46.5 -97.5t-96.5 -35.5z" />
    <glyph glyph-name="uni0331" unicode="&#x331;" 
d="M-119 -148q-21 0 -21 19q0 9 5.5 14t15.5 5h238q21 0 21 -19q0 -9 -5.5 -14t-15.5 -5h-238z" />
    <glyph glyph-name="uni0335" unicode="&#x335;" 
d="M-153 522q-20 0 -20 18q0 8 5 13t15 5h306q20 0 20 -18q0 -8 -5 -13t-15 -5h-306z" />
    <glyph glyph-name="uni0337" unicode="&#x337;" 
d="M-92 281q-7 -4 -13.5 -3.5t-10.5 5t-5.5 10t1 12t10.5 10.5l202 118q7 4 13.5 3.5t11 -5t5.5 -10t-1.5 -11.5t-10.5 -11z" />
    <glyph glyph-name="uni0338" unicode="&#x338;" 
d="M-134 -23q-5 -8 -12 -9.5t-12.5 2t-7.5 11t3 16.5l297 516q5 8 12 9.5t12.5 -2t7.5 -11t-3 -16.5z" />
    <glyph glyph-name="uni0394" unicode="&#x394;" horiz-adv-x="716" 
d="M73 0q-13 0 -20 11t1 33l276 642q4 10 11 14.5t17 4.5q21 0 28 -19l276 -642q10 -23 1 -33.5t-20 -10.5h-570zM357 647l-274 -639v31h550v-31l-274 639h-2z" />
    <glyph glyph-name="Sigma" unicode="&#x3a3;" horiz-adv-x="600" 
d="M77 -180q-8 0 -13 4t-7.5 10.5t-1 14.5t6.5 15l284 409v-21l-284 409q-8 12 -8.5 22t5.5 16t18 6h450q11 0 17.5 -5t6.5 -14q0 -10 -6.5 -15t-17.5 -5h-429v15l270 -389q8 -11 10.5 -20.5t0 -18t-10.5 -20.5l-270 -389v15h429q11 0 17.5 -5.5t6.5 -14.5t-6.5 -14
t-17.5 -5h-450z" />
    <glyph glyph-name="uni03A9" unicode="&#x3a9;" horiz-adv-x="760" 
d="M60 0q-10 0 -15.5 5t-5.5 14t5.5 14t15.5 5h225v-16q-114 73 -169 166.5t-55 205.5q0 100 39 171t111 109.5t169 38.5q73 0 132 -21.5t100.5 -63t64 -100.5t22.5 -134t-24.5 -141.5t-74 -124t-125.5 -106.5v16h225q10 0 15.5 -5t5.5 -14t-5.5 -14t-15.5 -5h-238
q-6 0 -10.5 3t-7.5 8t-3 12q0 5 1.5 9t4.5 7.5t7 5.5q69 50 113 104.5t65.5 115.5t21.5 129q0 89 -33 151t-94 94.5t-147 32.5q-85 0 -146.5 -33t-94.5 -95t-33 -150q0 -68 21.5 -129t65.5 -115.5t113 -104.5q7 -4 10.5 -10t3.5 -13q0 -10 -6 -16t-16 -6h-238z" />
    <glyph glyph-name="uni03BC" unicode="&#x3bc;" horiz-adv-x="545" 
d="M104 -186q-10 0 -15.5 6t-5.5 16v632q0 11 5.5 16.5t15.5 5.5t15.5 -5.5t5.5 -16.5v-287q0 -76 31 -113t98 -37q73 0 118.5 48.5t45.5 127.5v261q0 11 5.5 16.5t15.5 5.5t15.5 -5.5t5.5 -16.5v-452q0 -22 -20 -22q-10 0 -15.5 6t-5.5 16v105h12q-19 -63 -67 -96t-110 -33
q-51 0 -90.5 18.5t-59.5 70.5h17l4 -245q0 -11 -5 -16.5t-16 -5.5z" />
    <glyph glyph-name="pi" unicode="&#x3c0;" horiz-adv-x="560" 
d="M56 -6q-11 0 -16 7t-1 18q29 87 47 197.5t19 231.5h-84q-10 0 -16 5t-6 13t6 13t16 5h479q11 0 16.5 -5t5.5 -13t-5.5 -13t-16.5 -5h-111v-287q0 -62 24.5 -93.5t80.5 -31.5q17 0 28.5 2t15.5 2q6 0 10.5 -4.5t4.5 -12.5q0 -16 -17.5 -21t-46.5 -5q-50 0 -81.5 20t-46 57
t-14.5 88v286h-200q-2 -131 -18.5 -240.5t-45.5 -195.5q-3 -9 -9.5 -13.5t-17.5 -4.5z" />
    <glyph glyph-name="uni0400" unicode="&#x400;" horiz-adv-x="570" 
d="M121 0q-12 0 -18.5 6.5t-6.5 18.5v655q0 12 6.5 18.5t18.5 6.5h384q10 0 15.5 -5t5.5 -14q0 -10 -5.5 -15t-15.5 -5h-367v-289h347q10 0 15.5 -5t5.5 -14q0 -10 -5.5 -15t-15.5 -5h-347v-299h367q10 0 15.5 -5t5.5 -14q0 -10 -5.5 -15t-15.5 -5h-384zM299 768l-111 138
q-6 8 -6 15t4.5 12t11.5 7t14.5 -0.5t13.5 -11.5l99 -143q5 -7 3.5 -13t-6.5 -9t-11.5 -2t-11.5 7z" />
    <glyph glyph-name="uni0401" unicode="&#x401;" horiz-adv-x="570" 
d="M121 0q-12 0 -18.5 6.5t-6.5 18.5v655q0 12 6.5 18.5t18.5 6.5h384q10 0 15.5 -5t5.5 -14q0 -10 -5.5 -15t-15.5 -5h-367v-289h347q10 0 15.5 -5t5.5 -14q0 -10 -5.5 -15t-15.5 -5h-347v-299h367q10 0 15.5 -5t5.5 -14q0 -10 -5.5 -15t-15.5 -5h-384zM401 817
q-16 0 -25 8.5t-9 24.5t9 24.5t25 8.5t24.5 -8.5t8.5 -24.5t-8.5 -24.5t-24.5 -8.5zM240 817q-16 0 -25 8.5t-9 24.5t9 24.5t25 8.5t24.5 -8.5t8.5 -24.5t-8.5 -24.5t-24.5 -8.5z" />
    <glyph glyph-name="uni0402" unicode="&#x402;" horiz-adv-x="817" 
d="M568 -188q-27 0 -52.5 4.5t-45.5 11.5q-7 3 -11 8.5t-3.5 11.5t3.5 10.5t9.5 6.5t15.5 -1q20 -7 40 -10t43 -3q71 0 108.5 47.5t37.5 143.5v98q0 126 -54 187t-168 61q-55 0 -98.5 -11.5t-78.5 -35.5v-325q0 -10 -5 -16t-16 -6q-10 0 -15.5 6t-5.5 16v650h-253
q-10 0 -16 5.5t-6 14.5t6 14t16 5h548q11 0 16.5 -5t5.5 -14q0 -10 -5.5 -15t-16.5 -5h-253v-279q30 20 78 31t100 11q66 0 115.5 -18t82 -53.5t49 -88.5t16.5 -123v-103q0 -75 -21.5 -126.5t-63.5 -78t-102 -26.5z" />
    <glyph glyph-name="uni0403" unicode="&#x403;" horiz-adv-x="527" 
d="M117 -6q-10 0 -15.5 6t-5.5 16v667q0 11 6 16.5t16 5.5h380q11 0 16.5 -5t5.5 -15q0 -9 -5.5 -14t-16.5 -5h-360v-650q0 -10 -5.5 -16t-15.5 -6zM296 768q-5 -6 -11.5 -7t-11.5 2t-6.5 9t3.5 13l99 143q6 9 13.5 11.5t14.5 0.5t11.5 -7t4.5 -12t-6 -15z" />
    <glyph glyph-name="uni0404" unicode="&#x404;" horiz-adv-x="667" 
d="M381 -8q-99 0 -169 43.5t-107.5 124.5t-37.5 193q0 84 21 150.5t61.5 113t99 71.5t132.5 25q67 0 125 -20.5t104 -64.5q8 -7 9.5 -14.5t-1 -14t-8 -9.5t-12.5 -2t-15 8q-45 41 -93 58.5t-110 17.5q-86 0 -145 -37t-90 -106t-33 -165l-19 13h386q11 0 17 -5t6 -14
q0 -10 -6 -15t-17 -5h-387l20 9q1 -99 32 -169t90.5 -107.5t145.5 -37.5q62 0 110 18t91 56q9 8 16.5 9t12.5 -2.5t7 -10t0 -14t-9 -13.5q-45 -43 -103 -63.5t-124 -20.5z" />
    </font>
</defs>
</svg>
